<?xml version="1.0" standalone="no"?>
<!DOCTYPE svg PUBLIC "-//W3C//DTD SVG 1.1//EN" "http://www.w3.org/Graphics/SVG/1.1/DTD/svg11.dtd" >
<svg xmlns="http://www.w3.org/2000/svg">
<metadata>Generated by IcoMoon</metadata>
<defs>
<font id="icomoon" horiz-adv-x="1024">
<font-face units-per-em="1024" ascent="960" descent="-64" />
<missing-glyph horiz-adv-x="1024" />
<glyph unicode="&#x20;" d="" horiz-adv-x="512" />
<glyph unicode="&#xe600;" d="M647.92 538.832l-63.76 191.296-256-192-64 192-273.76-205.328 19.2-25.6 238.24 178.672 64-192 256 192 64.24-192.704 244.288 195.44 118.32-177.488 26.624 17.76-137.68 206.512zM647.92 218.832l-63.76 191.296-256-192-64 192-273.76-205.328 19.2-25.6 238.24 178.672 64-192 256 192 64.24-192.704 244.288 195.44 118.32-177.488 26.624 17.76-137.68 206.512z" />
<glyph unicode="&#xe601;" d="M816 960c-168.688 0-267.68-194.48-304-605.072-36.32 410.592-135.312 605.072-304 605.072-136.080 0-208-77.456-208-224 0-101.456 81.232-183.856 84.688-187.312l22.624 22.624c-0.752 0.752-75.312 76.352-75.312 164.688 0 129.2 57.568 192 176 192 193.792 0 288-324.48 288-992h32c0 667.52 94.208 992 288 992 118.432 0 176-62.8 176-192 0-88.032-74.576-163.936-75.328-164.704l22.64-22.608c3.456 3.456 84.688 85.856 84.688 187.312 0 146.544-71.92 224-208 224z" />
<glyph unicode="&#xe602;" d="M69.584 668.144l0.144-0.176c-42.272-32.176-69.728-82.864-69.728-139.968 0-97.040 78.96-176 176-176s176 78.96 176 176c0 83.2-58.096 152.944-135.808 171.184 68.96 19.568 169.952 36.816 311.808 36.816 232.496 0 484.992-156 487.52-157.568l16.96 27.12c-10.608 6.656-262.672 162.448-504.48 162.448-338.032 0-453.664-95.776-458.416-99.856zM320 528c0-79.408-64.608-144-144-144s-144 64.592-144 144 64.608 144 144 144 144-64.592 144-144zM848 544c-97.040 0-176-78.96-176-176 0-83.2 58.096-152.944 135.808-171.184-68.96-19.568-169.952-36.816-311.808-36.816-232.496 0-484.992 156-487.52 157.568l-16.96-27.12c10.608-6.656 262.672-162.448 504.48-162.448 338.032 0 453.664 95.776 458.416 99.856l-0.144 0.176c42.272 32.176 69.728 82.864 69.728 139.968 0 97.040-78.96 176-176 176zM848 224c-79.392 0-144 64.592-144 144s64.608 144 144 144 144-64.592 144-144-64.608-144-144-144z" />
<glyph unicode="&#xe603;" d="M768 336c-81.088 0-166.608-35.648-196.688-129.872-30.72 54-27.392 112.24-27.312 113.872v464c0 60.88-26.752 176-128 176-52.048 0-84.32-30.464-103.472-68.32-4.896 17.664-12.24 34.192-23.408 46.528-12.88 14.256-29.872 21.792-49.12 21.792-110.72 0-112-79.2-112-80l32-0.208c0.128 4.944 3.504 48.208 80 48.208 10.368 0 18.432-3.584 25.392-11.232 20.752-22.912 24.496-74.384 23.856-109.072-0.848-8.464-1.248-16.48-1.248-23.696v-464h32l-0.080 462.4c0.272 2.56 0.896 9.904 1.264 20 3.824 38.72 20.624 125.6 94.816 125.6 94.608 0 95.984-138.144 96-144l0.048-462.864c-0.288-3.792-5.536-89.536 50.208-158.352-1.328-11.056-2.256-22.48-2.256-34.784l0.096-3.84c1.584-46.752-10.544-83.808-36.016-110.176-29.504-30.512-76.64-45.984-140.080-45.984v-32c72.448 0 127.312 18.752 163.072 55.744 31.728 32.832 46.88 77.728 44.992 133.488l-0.064 2.768c0 1.744 0.224 3.232 0.256 4.96 43.456-35.072 102.32-52.96 175.744-52.96 70.576 0 128 57.424 128 128s-57.424 128-128 128zM768 112c-75.808 0-133.632 20.464-171.952 60.72 21.040 117.152 124.528 131.28 171.952 131.28 52.944 0 96-43.056 96-96s-43.056-96-96-96z" />
<glyph unicode="&#xe604;" d="M176 144h704c82.096 0 144 61.904 144 144 0 72.48-50.912 149.776-128.336 159.072-7.984 181.152-159.568 320.928-351.664 320.928-169.584 0-314.080-106.88-348.976-256h-19.024c-95.392 0-176-87.92-176-192 0-100.336 75.664-176 176-176zM176 480h45.28l2.448 13.040c26.464 140.784 161.152 242.96 320.272 242.96 179.44 0 320-133.536 320-304v-16h16c66 0 112-67.456 112-128 0-63.856-48.144-112-112-112h-704c-82.096 0-144 61.904-144 144 0 86.72 65.952 160 144 160z" />
<glyph unicode="&#xe605;" d="M895.664 607.072c-7.984 181.152-159.568 320.928-351.664 320.928-169.584 0-314.080-106.88-348.976-256h-19.024c-95.392 0-176-87.92-176-192 0-100.336 75.664-176 176-176h112v32h-112c-82.096 0-144 61.904-144 144 0 86.72 65.952 160 144 160h45.28l2.448 13.040c26.464 140.784 161.152 242.96 320.272 242.96 179.44 0 320-133.536 320-304v-16h16c66 0 112-67.456 112-128 0-63.856-48.144-112-112-112h-160v-32h160c82.096 0 144 61.904 144 144 0 72.48-50.912 149.776-128.336 159.072zM656 288c0 116.272-126.128 275.28-131.504 282l-11.776 14.72-12.608-14.016c-6.048-6.72-148.112-165.904-148.112-282.704 0-83.44 67.296-144 160-144 87.472 0 144 56.528 144 144zM512 176c-61.648 0-128 35.040-128 112 0 85.584 92.832 205.136 127.264 246.528 31.040-42.048 112.736-160.896 112.736-246.528 0-70.128-41.872-112-112-112z" />
<glyph unicode="&#xe606;" d="M579.12 601.488l-224-304 12.88-25.488h77.344l-29.168-189.568 28.688-11.92 224 304-12.864 25.488h-77.344l29.168 189.568-28.704 11.92zM624.336 368l-166.64-226.144 22.112 143.712-15.808 18.432h-64.336l166.64 226.144-22.112-143.712 15.808-18.432h64.336zM895.664 607.072c-7.984 181.152-159.568 320.928-351.664 320.928-169.584 0-314.080-106.88-348.976-256h-19.024c-95.392 0-176-87.92-176-192 0-100.336 75.664-176 176-176h112v32h-112c-82.096 0-144 61.904-144 144 0 86.72 65.952 160 144 160h45.28l2.448 13.040c26.464 140.784 161.152 242.96 320.272 242.96 179.44 0 320-133.536 320-304v-16h16c66 0 112-67.456 112-128 0-63.856-48.144-112-112-112h-144v-32h144c82.096 0 144 61.904 144 144 0 72.48-50.912 149.776-128.336 159.072z" />
<glyph unicode="&#xe607;" d="M176 304h112v32h-112c-82.096 0-144 61.904-144 144 0 86.72 65.952 160 144 160h45.28l2.448 13.040c26.464 140.784 161.152 242.96 320.272 242.96 179.44 0 320-133.536 320-304v-16h16c66 0 112-67.456 112-128 0-63.856-48.144-112-112-112h-144v-32h144c82.096 0 144 61.904 144 144 0 72.48-50.912 149.776-128.336 159.072-7.984 181.152-159.568 320.928-351.664 320.928-169.584 0-314.080-106.88-348.976-256h-19.024c-95.392 0-176-87.92-176-192 0-100.336 75.664-176 176-176zM349.312 263.12l27.248 40.88h103.44v32h-103.44l-27.248 40.88-26.624-17.76 26.080-39.12-26.080-39.12zM674.688 376.88l-27.248-40.88h-103.44v-32h103.44l27.248-40.88 26.624 17.76-26.080 39.12 26.080 39.12zM512 156.768l39.12-26.080 17.76 26.624-40.88 27.248v103.44h-32v-103.44l-40.88-27.248 17.76-26.624zM512 483.232l-39.12 26.080-17.76-26.624 40.88-27.248v-103.44h32v103.44l40.88 27.248-17.76 26.624zM405.808 481.536l-9.216-46.112-46.128-9.232 6.288-31.376 48.176 9.648 63.76-63.776 22.624 22.624-63.76 63.776 9.632 48.16zM618.192 158.464l9.232 46.112 46.112 9.232-6.288 31.376-48.176-9.632-63.76 63.76-22.624-22.624 63.76-63.76-9.632-48.176zM468.688 299.312l-63.776-63.76-48.16 9.632-6.288-31.376 46.112-9.216 9.232-46.128 31.376 6.288-9.648 48.176 63.776 63.76zM555.312 340.688l63.76 63.76 48.176-9.632 6.288 31.376-46.112 9.232-9.232 46.112-31.376-6.288 9.632-48.176-63.76-63.76z" />
<glyph unicode="&#xe608;" d="M911.616 510.832c-8.592 160.768-155.84 289.168-335.616 289.168-65.552 0-127.008-18.496-178.496-50.512-42.352 52.016-105.44 82.512-173.504 82.512-123.52 0-224-100.48-224-224 0-42.912 12.176-84.608 35.216-120.608 13.6-21.232 31.008-40.144 50.912-55.744-3.888-15.184-6.128-31.12-6.128-47.648 0-92.704 67.296-160 160-160h656c75.36 0 128 52.64 128 128 0 71.888-44.528 148.512-112.384 158.832zM62.176 504.64c-19.744 30.832-30.176 66.576-30.176 103.36 0 105.872 86.128 192 192 192 57.456 0 110.864-25.296 147.152-68.656-55.312-42.448-95.824-102-112.128-171.344h-19.024c-62.080 0-115.872-39.168-142.4-96.144-13.584 11.936-25.728 25.6-35.424 40.784zM896 256h-656c-75.36 0-128 52.64-128 128 0 79.392 57.424 144 128 144h45.264l2.448 13.040c24.736 131.52 145.968 226.96 288.288 226.96 167.632 0 304-122.016 304-272v-16h16c56.576 0 96-67.456 96-128 0-58.32-37.68-96-96-96zM178.068-24.029l127.994 223.996 27.782-15.875-127.994-223.996-27.782 15.875zM338.061-24.037l127.994 223.996 27.782-15.875-127.994-223.996-27.782 15.875zM498.055-24.044l127.994 223.996 27.782-15.875-127.994-223.996-27.782 15.875zM658.049-24.050l127.994 223.996 27.782-15.875-127.994-223.996-27.782 15.875z" />
<glyph unicode="&#xe609;" d="M35.216 487.392c13.6-21.232 31.008-40.144 50.912-55.744-3.888-15.184-6.128-31.12-6.128-47.648 0-92.704 67.296-160 160-160h656c75.36 0 128 52.64 128 128 0 71.888-44.528 148.512-112.384 158.832-8.592 160.768-155.84 289.168-335.616 289.168-65.552 0-127.008-18.496-178.496-50.512-42.352 52.016-105.44 82.512-173.504 82.512-13.488 0-27.488-1.344-41.584-4l-23.264-4.384 12.736-19.952c13.152-20.624 20.112-44.368 20.112-68.656 0-70.576-57.424-128-128-128-14.24 0-28.496 2.464-42.384 7.344l-22.272 7.824 0.992-23.584c1.648-39.68 13.712-78.128 34.88-111.2zM880 496v-16h16c56.576 0 96-67.456 96-128 0-58.32-37.68-96-96-96h-656c-75.36 0-128 52.64-128 128 0 79.392 57.424 144 128 144h45.264l2.448 13.040c24.736 131.52 145.968 226.96 288.288 226.96 167.632 0 304-122.016 304-272zM64 575.008c88.224 0 160 71.776 160 160 0 22.304-4.672 44.208-13.648 64.48 4.624 0.336 9.168 0.512 13.648 0.512 57.456 0 110.864-25.296 147.152-68.656-55.312-42.448-95.824-102-112.128-171.344h-19.024c-62.080 0-115.872-39.168-142.4-96.144-13.6 11.952-25.712 25.616-35.44 40.784-14.16 22.128-23.568 47.072-27.68 73.168 9.792-1.872 19.648-2.8 29.52-2.8zM333.932 184.029l-127.994-223.996-27.782 15.875 127.994 223.996 27.782-15.875zM493.939 184.037l-127.994-223.996-27.782 15.875 127.994 223.996 27.782-15.875zM653.945 184.044l-127.994-223.996-27.782 15.875 127.994 223.996 27.782-15.875zM813.951 184.050l-127.994-223.996-27.782 15.875 127.994 223.996 27.782-15.875z" />
<glyph unicode="&#xe60a;" d="M911.616 510.832c-8.592 160.768-155.84 289.168-335.616 289.168-31.344 0-61.664-4.4-90.512-12.304-38.832 28.912-84.816 44.304-133.488 44.304-123.52 0-224-100.48-224-224 0-34.624 7.792-57.84 19.952-80.288-41.024-31.904-67.952-84.368-67.952-143.712 0-92.704 67.296-160 160-160h656c75.36 0 128 52.64 128 128 0 71.888-44.528 148.512-112.384 158.832zM160 608c0 105.872 86.128 192 192 192 33.904 0 66.288-8.752 95.088-25.28-93.44-38.144-164.976-116.576-188.064-214.72h-19.024c-23.072 0-44.976-5.504-64.8-15.216-10.528 20.016-15.2 37.328-15.2 63.216zM896 256h-656c-75.36 0-128 52.64-128 128 0 79.392 57.424 144 128 144h45.264l2.448 13.040c24.736 131.52 145.968 226.96 288.288 226.96 167.632 0 304-122.016 304-272v-16h16c56.576 0 96-67.456 96-128 0-58.32-37.68-96-96-96zM0 624h96v-32h-96v32zM336 960h32v-96h-32v96zM75.31 907.319l95.996-95.996-22.627-22.627-95.996 95.996 22.627 22.627zM306.124 199.976l27.782-15.875-127.994-223.996-27.782 15.875 127.994 223.996zM338.061-24.037l127.994 223.996 27.782-15.875-127.994-223.996-27.782 15.875zM498.055-24.044l127.994 223.996 27.782-15.875-127.994-223.996-27.782 15.875zM658.049-24.050l127.994 223.996 27.782-15.875-127.994-223.996-27.782 15.875z" />
<glyph unicode="&#xe60b;" d="M512-64c194.096 0 352 163.184 352 363.76 0 251.536-325.376 638.24-339.232 654.576l-12.16 14.352-12.208-14.32c-13.952-16.32-341.52-403.056-340.4-654.672 0.864-200.544 158.768-363.696 352-363.696zM512.528 918.88c59.824-73.664 319.472-405.76 319.472-619.12 0-182.928-143.552-331.76-320-331.76-175.664 0-319.216 148.864-320 331.84-0.96 213.248 260.384 545.456 320.528 619.040z" />
<glyph unicode="&#xe60c;" d="M512-64c282.32 0 512 229.68 512 512s-229.68 512-512 512-512-229.68-512-512 229.68-512 512-512zM32 448c0 10.768 0.48 21.408 1.184 32h462.816v-64h-462.816c-0.704 10.592-1.184 21.232-1.184 32zM496-31.6c-54.816 1.808-107.312 12.832-156.016 31.6h156.016v-31.6zM496 896h-156.016c48.704 18.768 101.2 29.776 156.016 31.6v-31.6zM496 864v-64h-309.888c26.384 24.448 55.536 45.92 86.88 64h223.008zM496 768v-64h-389.728c14.352 22.672 30.512 44.096 48.352 64h341.376zM496 672v-64h-436.48c7.84 22.128 17.264 43.504 28.128 64h408.352zM496 576v-64h-459.616c2.928 21.824 7.312 43.184 13.072 64h446.544zM496 384v-64h-446.528c-5.76 20.816-10.144 42.176-13.072 64h459.6zM496 288v-64h-408.336c-10.864 20.496-20.288 41.872-28.128 64h436.464zM496 192v-64h-341.376c-17.84 19.904-34 41.328-48.352 64h389.728zM496 96v-64h-223.008c-31.344 18.080-60.496 39.552-86.88 64h309.888zM992 448c0-259.312-206.72-471.104-464-479.6v959.2c257.28-8.496 464-220.288 464-479.6z" />
<glyph unicode="&#xe60d;" d="M895.664 607.072c-7.984 181.152-159.568 320.928-351.664 320.928-169.584 0-314.080-106.88-348.976-256h-19.024c-95.392 0-176-87.92-176-192 0-100.336 75.664-176 176-176v32c-82.096 0-144 61.904-144 144 0 86.72 65.952 160 144 160h45.28l2.448 13.040c26.464 140.784 161.152 242.96 320.272 242.96 179.44 0 320-133.536 320-304v-16h16c66 0 112-67.456 112-128 0-63.856-48.144-112-112-112v-32c82.096 0 144 61.904 144 144 0 72.48-50.912 149.776-128.336 159.072zM208 336h640v-32h-640v32zM208 208h640v-32h-640v32zM208 80h640v-32h-640v32z" />
<glyph unicode="&#xe60e;" d="M86.128 431.648c-3.888-15.184-6.128-31.12-6.128-47.648 0-92.704 67.296-160 160-160v32c-75.36 0-128 52.64-128 128 0 79.392 57.424 144 128 144h45.264l2.448 13.040c24.736 131.52 145.968 226.96 288.288 226.96 167.632 0 304-122.016 304-272v-16h16c56.576 0 96-67.456 96-128 0-58.32-37.68-96-96-96v-32c75.36 0 128 52.64 128 128 0 71.888-44.528 148.512-112.384 158.832-8.592 160.768-155.84 289.168-335.616 289.168-65.552 0-127.008-18.496-178.496-50.512-42.352 52.016-105.44 82.512-173.504 82.512-123.52 0-224-100.48-224-224 0-42.912 12.176-84.608 35.216-120.608 13.6-21.232 31.024-40.144 50.912-55.744zM224 800c57.456 0 110.864-25.296 147.152-68.656-55.312-42.448-95.824-102-112.128-171.344h-19.024c-62.080 0-115.872-39.168-142.4-96.144-13.584 11.952-25.696 25.616-35.424 40.784-19.744 30.832-30.176 66.576-30.176 103.36 0 105.872 86.128 192 192 192zM272 256h592v-32h-592v32zM272 160h592v-32h-592v32zM272 64h592v-32h-592v32z" />
<glyph unicode="&#xe60f;" d="M911.616 510.832c-8.592 160.768-155.84 289.168-335.616 289.168-65.552 0-127.008-18.496-178.496-50.512-42.352 52.016-105.44 82.512-173.504 82.512-13.488 0-27.488-1.344-41.584-4l-23.264-4.384 12.736-19.952c13.152-20.624 20.112-44.368 20.112-68.656 0-70.576-57.424-128-128-128-14.24 0-28.496 2.464-42.384 7.344l-22.272 7.824 0.992-23.584c1.664-39.664 13.712-78.128 34.896-111.2 13.6-21.232 31.008-40.144 50.912-55.744-3.904-15.184-6.144-31.12-6.144-47.648 0-92.704 67.296-160 160-160v32c-75.36 0-128 52.64-128 128 0 79.392 57.424 144 128 144h45.264l2.448 13.040c24.736 131.52 145.968 226.96 288.288 226.96 167.632 0 304-122.016 304-272v-16h16c56.576 0 96-67.456 96-128 0-58.32-37.68-96-96-96v-32c75.36 0 128 52.64 128 128 0 71.888-44.528 148.512-112.384 158.832zM259.024 560h-19.024c-62.080 0-115.888-39.168-142.4-96.144-13.584 11.952-25.712 25.616-35.44 40.784-14.16 22.128-23.568 47.072-27.68 73.168 9.792-1.872 19.648-2.8 29.52-2.8 88.224 0 160 71.776 160 160 0 22.304-4.672 44.208-13.648 64.48 4.624 0.336 9.168 0.512 13.648 0.512 57.456 0 110.864-25.296 147.152-68.656-55.312-42.448-95.824-102-112.128-171.344zM272 256h592v-32h-592v32zM272 160h592v-32h-592v32zM272 64h592v-32h-592v32z" />
<glyph unicode="&#xe610;" d="M911.6 510.832c-8.576 160.768-155.824 289.168-335.6 289.168-31.344 0-61.664-4.4-90.528-12.304-38.8 28.912-84.8 44.304-133.472 44.304-123.52 0-224-100.48-224-224 0-34.624 7.792-57.84 19.952-80.288-41.024-31.888-67.952-84.368-67.952-143.712 0-92.704 67.296-160 160-160v32c-75.36 0-128 52.64-128 128 0 79.392 57.424 144 128 144h45.28l2.448 13.040c24.72 131.52 145.952 226.96 288.272 226.96 167.632 0 304-122.016 304-272v-16h16c56.576 0 96-67.456 96-128 0-58.32-37.68-96-96-96v-32c75.36 0 128 52.64 128 128 0 71.888-44.528 148.512-112.4 158.832zM259.024 560h-19.024c-23.072 0-44.976-5.504-64.8-15.216-10.528 20.016-15.2 37.328-15.2 63.216 0 105.872 86.128 192 192 192 33.92 0 66.288-8.752 95.088-25.28-93.424-38.144-164.992-116.576-188.064-214.72zM0 624h96v-32h-96v32zM336 960h32v-96h-32v96zM75.31 907.319l95.996-95.996-22.627-22.627-95.996 95.996 22.627 22.627zM272 256h592v-32h-592v32zM272 160h592v-32h-592v32zM272 64h592v-32h-592v32z" />
<glyph unicode="&#xe611;" d="M512 960c-282.32 0-512-229.68-512-512s229.68-512 512-512 512 229.68 512 512-229.68 512-512 512zM512-32c-264.672 0-480 215.328-480 480s215.328 480 480 480 480-215.328 480-480-215.328-480-480-480z" />
<glyph unicode="&#xe612;" d="M1027.888 816.48l-7.776 31.040c-2.528-0.624-256.992-63.52-508.112-63.52-250.976 0-505.584 62.896-508.112 63.52l-7.776-31.040c1.92-0.48 145.488-35.952 323.888-54.064v-628.848c-178.4-18.096-321.968-53.568-323.888-54.048l7.76-31.024c2.544 0.608 257.008 63.504 508.128 63.504 250.976 0 505.584-62.896 508.112-63.52l7.76 31.024c-1.904 0.496-145.472 35.968-323.872 54.080v628.832c178.4 18.112 321.968 53.584 323.888 54.064zM672 136.592c-51.84 4.528-105.984 7.408-160 7.408s-108.16-2.88-160-7.408v622.816c51.84-4.528 105.984-7.408 160-7.408s108.16 2.88 160 7.408v-622.816z" />
<glyph unicode="&#xe613;" d="M895.664 607.072c-7.984 181.152-159.568 320.928-351.664 320.928-169.584 0-314.080-106.88-348.976-256h-19.024c-95.392 0-176-87.92-176-192 0-100.336 75.664-176 176-176h704c82.096 0 144 61.904 144 144 0 72.48-50.912 149.776-128.336 159.072zM880 336h-704c-82.096 0-144 61.904-144 144 0 86.72 65.952 160 144 160h45.28l2.448 13.040c26.464 140.784 161.152 242.96 320.272 242.96 179.44 0 320-133.536 320-304v-16h16c66 0 112-67.456 112-128 0-63.856-48.144-112-112-112zM289.456 70.625l79.999 176.006 29.118-13.235-79.999-176.006-29.118 13.235zM129.458 70.619l79.999 176.006 29.118-13.235-79.999-176.006-29.118 13.235zM449.456 70.63l79.999 176.006 29.118-13.235-79.999-176.006-29.118 13.235zM609.456 70.635l79.999 176.006 29.118-13.235-79.999-176.006-29.118 13.235zM849.407 246.637l29.118-13.232-79.98-176.006-29.118 13.232 79.98 176.006zM241.66-8.837l15.999 31.998 28.621-14.31-15.999-31.998-28.621 14.31zM81.663-8.834l15.999 31.998 28.621-14.31-15.999-31.998-28.621 14.31zM401.658-8.842l15.999 31.998 28.621-14.31-15.999-31.998-28.621 14.31zM561.656-8.847l15.999 31.998 28.621-14.31-15.999-31.998-28.621 14.31zM721.653-8.852l15.999 31.998 28.621-14.31-15.999-31.998-28.621 14.31z" />
<glyph unicode="&#xe614;" d="M911.616 510.832c-8.592 160.768-155.84 289.168-335.616 289.168-65.552 0-127.008-18.496-178.496-50.512-42.352 52.016-105.44 82.512-173.504 82.512-123.52 0-224-100.48-224-224 0-42.912 12.176-84.608 35.216-120.608 13.6-21.232 31.008-40.144 50.912-55.744-3.888-15.184-6.128-31.12-6.128-47.648 0-92.704 67.296-160 160-160h656c75.36 0 128 52.64 128 128 0 71.888-44.528 148.512-112.384 158.832zM62.176 504.64c-19.744 30.832-30.176 66.576-30.176 103.36 0 105.872 86.128 192 192 192 57.456 0 110.864-25.296 147.152-68.656-55.312-42.448-95.824-102-112.128-171.344h-19.024c-62.080 0-115.872-39.168-142.4-96.144-13.584 11.936-25.728 25.6-35.424 40.784zM896 256h-656c-75.36 0-128 52.64-128 128 0 79.392 57.424 144 128 144h45.264l2.448 13.040c24.736 131.52 145.968 226.96 288.288 226.96 167.632 0 304-122.016 304-272v-16h16c56.576 0 96-67.456 96-128 0-58.32-37.68-96-96-96zM305.403 198.511l29.256-13.002-63.995-144-29.256 13.002 63.995 144zM465.4 198.518l29.256-13.002-63.995-144-29.256 13.002 63.995 144zM625.398 198.524l29.256-13.002-63.995-144-29.256 13.002 63.995 144zM785.397 198.53l29.256-13.002-63.995-144-29.256 13.002 63.995 144zM238.304-39.185l-28.621 14.31 15.999 31.998 28.621-14.31-15.999-31.998zM398.308-39.186l-28.621 14.31 15.999 31.998 28.621-14.31-15.999-31.998zM558.312-39.188l-28.621 14.31 15.999 31.998 28.621-14.31-15.999-31.998zM718.317-39.191l-28.621 14.31 15.999 31.998 28.621-14.31-15.999-31.998z" />
<glyph unicode="&#xe615;" d="M911.616 510.832c-8.592 160.768-155.84 289.168-335.616 289.168-65.552 0-127.008-18.496-178.496-50.512-42.352 52.016-105.44 82.512-173.504 82.512-13.488 0-27.488-1.344-41.584-4l-23.264-4.384 12.736-19.952c13.152-20.624 20.112-44.368 20.112-68.656 0-70.576-57.424-128-128-128-14.24 0-28.496 2.464-42.384 7.344l-22.272 7.824 0.992-23.584c1.664-39.664 13.712-78.128 34.896-111.2 13.6-21.232 31.008-40.144 50.912-55.744-3.904-15.184-6.144-31.12-6.144-47.648 0-92.704 67.296-160 160-160h656c75.36 0 128 52.64 128 128 0 71.888-44.528 148.512-112.384 158.832zM62.16 504.64c-14.16 22.128-23.568 47.072-27.68 73.168 9.792-1.872 19.648-2.8 29.52-2.8 88.224 0 160 71.776 160 160 0 22.304-4.672 44.208-13.648 64.48 4.624 0.336 9.168 0.512 13.648 0.512 57.456 0 110.864-25.296 147.152-68.656-55.312-42.448-95.824-102-112.128-171.344h-19.024c-62.080 0-115.872-39.168-142.4-96.144-13.6 11.936-25.728 25.6-35.44 40.784zM896 256h-656c-75.36 0-128 52.64-128 128 0 79.392 57.424 144 128 144h45.264l2.448 13.040c24.736 131.52 145.968 226.96 288.288 226.96 167.632 0 304-122.016 304-272v-16h16c56.576 0 96-67.456 96-128 0-58.32-37.68-96-96-96zM305.403 198.511l29.256-13.002-63.995-144-29.256 13.002 63.995 144zM465.4 198.518l29.256-13.002-63.995-144-29.256 13.002 63.995 144zM625.398 198.524l29.256-13.002-63.995-144-29.256 13.002 63.995 144zM785.397 198.53l29.256-13.002-63.995-144-29.256 13.002 63.995 144zM238.304-39.185l-28.621 14.31 15.999 31.998 28.621-14.31-15.999-31.998zM398.308-39.186l-28.621 14.31 15.999 31.998 28.621-14.31-15.999-31.998zM558.312-39.188l-28.621 14.31 15.999 31.998 28.621-14.31-15.999-31.998zM718.317-39.191l-28.621 14.31 15.999 31.998 28.621-14.31-15.999-31.998z" />
<glyph unicode="&#xe616;" d="M911.616 510.832c-8.592 160.768-155.84 289.168-335.616 289.168-31.344 0-61.664-4.4-90.512-12.304-38.832 28.912-84.816 44.304-133.488 44.304-123.52 0-224-100.48-224-224 0-34.624 7.792-57.84 19.952-80.288-41.024-31.904-67.952-84.368-67.952-143.712 0-92.704 67.296-160 160-160h656c75.36 0 128 52.64 128 128 0 71.888-44.528 148.512-112.384 158.832zM160 608c0 105.872 86.128 192 192 192 33.904 0 66.288-8.752 95.088-25.28-93.44-38.144-164.976-116.576-188.064-214.72h-19.024c-23.072 0-44.976-5.504-64.8-15.216-10.528 20.016-15.2 37.328-15.2 63.216zM896 256h-656c-75.36 0-128 52.64-128 128 0 79.392 57.424 144 128 144h45.264l2.448 13.040c24.736 131.52 145.968 226.96 288.288 226.96 167.632 0 304-122.016 304-272v-16h16c56.576 0 96-67.456 96-128 0-58.32-37.68-96-96-96zM0 624h96v-32h-96v32zM336 960h32v-96h-32v96zM75.31 907.319l95.996-95.996-22.627-22.627-95.996 95.996 22.627 22.627zM305.403 198.511l29.256-13.002-63.995-144-29.256 13.002 63.995 144zM465.4 198.518l29.256-13.002-63.995-144-29.256 13.002 63.995 144zM625.398 198.524l29.256-13.002-63.995-144-29.256 13.002 63.995 144zM785.397 198.53l29.256-13.002-63.995-144-29.256 13.002 63.995 144zM238.304-39.185l-28.621 14.31 15.999 31.998 28.621-14.31-15.999-31.998zM398.308-39.186l-28.621 14.31 15.999 31.998 28.621-14.31-15.999-31.998zM558.312-39.188l-28.621 14.31 15.999 31.998 28.621-14.31-15.999-31.998zM718.317-39.191l-28.621 14.31 15.999 31.998 28.621-14.31-15.999-31.998z" />
<glyph unicode="&#xe617;" d="M512 960c-282.32 0-512-229.68-512-512s229.68-512 512-512 512 229.68 512 512-229.68 512-512 512zM992 448c0-10.768-0.48-21.408-1.184-32h-462.816v64h462.816c0.704-10.592 1.184-21.232 1.184-32zM528 927.6c54.816-1.824 107.312-12.832 156.032-31.6h-156.032v31.6zM528 0h156.032c-48.72-18.768-101.216-29.776-156.032-31.6v31.6zM528 32v64h309.872c-26.368-24.448-55.52-45.92-86.88-64h-222.992zM528 128v64h389.728c-14.352-22.672-30.512-44.096-48.336-64h-341.392zM528 224v64h436.48c-7.856-22.128-17.264-43.504-28.144-64h-408.336zM528 320v64h459.616c-2.928-21.824-7.312-43.184-13.072-64h-446.544zM528 512v64h446.528c5.76-20.816 10.16-42.176 13.072-64h-459.6zM528 608v64h408.336c10.88-20.496 20.288-41.872 28.144-64h-436.48zM528 704v64h341.392c17.824-19.904 33.984-41.328 48.336-64h-389.728zM528 800v64h223.008c31.36-18.080 60.496-39.552 86.88-64h-309.888zM32 448c0 259.312 206.72 471.104 464 479.6v-959.184c-257.28 8.48-464 220.272-464 479.584z" />
<glyph unicode="&#xe618;" d="M720-32c-70.576 0-128 57.424-128 128 0 122.32 165.776 415.568 167.344 418.32 82.528 140.8 35.136 322.496-105.664 405.024-68.208 40.016-147.904 50.992-224.4 31.072-76.496-19.968-140.656-68.512-180.64-136.736-71.232-121.536-45.504-273.392 53.36-365.776-87.296-1.088-158-72.352-158-159.904 0-88.224 71.776-160 160-160s160 71.776 160 160c0 64.992-39.024 120.992-94.848 146l1.328 2.256c-125.584 73.632-167.856 235.664-94.24 361.248 35.664 60.848 92.88 104.16 161.104 121.952 68.24 17.824 139.328 7.936 200.16-27.696 125.584-73.632 167.856-235.664 94.128-361.44-7.008-12.352-171.632-303.6-171.632-434.32 0-88.224 71.776-160 160-160 61.184 0 116.112 34.064 143.36 88.88l-28.656 14.256c-21.808-43.888-65.76-71.136-114.704-71.136zM432 288c0-70.576-57.424-128-128-128s-128 57.424-128 128 57.424 128 128 128 128-57.424 128-128z" />
<glyph unicode="&#xe619;" d="M785.776 558.224c0 150.96-122.8 273.776-273.776 273.776s-273.776-122.816-273.776-273.776c0-72.224 27.648-139.504 76.912-190.224h-315.136v-32h368v32h-4.896c-58.992 46.192-92.896 115.152-92.896 190.224 0.016 133.312 108.48 241.776 241.792 241.776s241.776-108.464 241.776-241.776c0-75.072-33.904-144.032-92.896-190.224h-4.88v-32h368v32h-315.104c49.248 50.704 76.88 117.968 76.88 190.224zM0 96h1024v-32h-1024v32z" />
<glyph unicode="&#xe61a;" d="M475.12 352l-106.576-395.84 28.416-13.52 416 576-12.96 25.36h-205.344l61.168 397.568-29.296 11.040-368-576 13.472-24.608h203.12zM612.656 871.488l-52.464-341.056 15.808-18.432h192.704l-346.56-479.856 89.312 331.696-15.456 20.16h-194.784l311.44 487.488z" />
<glyph unicode="&#xe61b;" d="M895.664 607.072c-7.984 181.152-159.568 320.928-351.664 320.928-169.584 0-314.080-106.88-348.976-256h-19.024c-95.392 0-176-87.92-176-192 0-100.336 75.664-176 176-176h704c82.096 0 144 61.904 144 144 0 72.48-50.912 149.776-128.336 159.072zM880 336h-704c-82.096 0-144 61.904-144 144 0 86.72 65.952 160 144 160h45.28l2.448 13.040c26.464 140.784 161.152 242.96 320.272 242.96 179.44 0 320-133.536 320-304v-16h16c66 0 112-67.456 112-128 0-63.856-48.144-112-112-112zM270.304-23.185l-28.621 14.31 15.999 31.998 28.621-14.31-15.999-31.998zM110.301-23.181l-28.621 14.31 15.999 31.998 28.621-14.31-15.999-31.998zM430.309-23.186l-28.621 14.31 15.999 31.998 28.621-14.31-15.999-31.998zM590.314-23.188l-28.621 14.31 15.999 31.998 28.621-14.31-15.999-31.998zM750.319-23.191l-28.621 14.31 15.999 31.998 28.621-14.31-15.999-31.998zM353.661 103.158l15.999 31.998 28.621-14.31-15.999-31.998-28.621 14.31zM209.696 135.18l28.621-14.31-15.999-31.998-28.621 14.31 15.999 31.998zM513.66 103.153l15.999 31.998 28.621-14.31-15.999-31.998-28.621 14.31zM673.658 103.148l15.999 31.998 28.621-14.31-15.999-31.998-28.621 14.31zM833.655 103.145l15.999 31.998 28.621-14.31-15.999-31.998-28.621 14.31zM289.691 263.178l28.621-14.31-15.999-31.998-28.621 14.31 15.999 31.998zM129.696 263.175l28.621-14.31-15.999-31.998-28.621 14.31 15.999 31.998zM449.686 263.18l28.621-14.31-15.999-31.998-28.621 14.31 15.999 31.998zM609.683 263.181l28.621-14.31-15.999-31.998-28.621 14.31 15.999 31.998zM769.678 263.185l28.621-14.31-15.999-31.998-28.621 14.31 15.999 31.998z" />
<glyph unicode="&#xe61c;" d="M911.616 510.832c-8.592 160.768-155.84 289.168-335.616 289.168-65.552 0-127.008-18.496-178.496-50.512-42.352 52.016-105.44 82.512-173.504 82.512-123.52 0-224-100.48-224-224 0-42.912 12.176-84.608 35.216-120.608 13.6-21.232 31.008-40.144 50.912-55.744-3.888-15.184-6.128-31.12-6.128-47.648 0-92.704 67.296-160 160-160h656c75.36 0 128 52.64 128 128 0 71.888-44.528 148.512-112.384 158.832zM62.176 504.64c-19.744 30.832-30.176 66.576-30.176 103.36 0 105.872 86.128 192 192 192 57.456 0 110.864-25.296 147.152-68.656-55.312-42.448-95.824-102-112.128-171.344h-19.024c-62.080 0-115.872-39.168-142.4-96.144-13.584 11.936-25.728 25.6-35.424 40.784zM896 256h-656c-75.36 0-128 52.64-128 128 0 79.392 57.424 144 128 144h45.264l2.448 13.040c24.736 131.52 145.968 226.96 288.288 226.96 167.632 0 304-122.016 304-272v-16h16c56.576 0 96-67.456 96-128 0-58.32-37.68-96-96-96zM225.696 7.185l28.621-14.31-15.999-31.998-28.621 14.31 15.999 31.998zM385.692 7.186l28.621-14.31-15.999-31.998-28.621 14.31 15.999 31.998zM529.656-24.845l15.999 31.998 28.621-14.31-15.999-31.998-28.621 14.31zM689.653-24.85l15.999 31.998 28.621-14.31-15.999-31.998-28.621 14.31zM302.308 152.82l-28.621 14.31 15.999 31.998 28.621-14.31-15.999-31.998zM462.312 152.819l-28.621 14.31 15.999 31.998 28.621-14.31-15.999-31.998zM622.317 152.815l-28.621 14.31 15.999 31.998 28.621-14.31-15.999-31.998zM753.658 167.145l15.999 31.998 28.621-14.31-15.999-31.998-28.621 14.31zM145.664 71.164l15.999 31.998 28.621-14.31-15.999-31.998-28.621 14.31zM321.692 103.183l28.621-14.31-15.999-31.998-28.621 14.31 15.999 31.998zM481.688 103.185l28.621-14.31-15.999-31.998-28.621 14.31 15.999 31.998zM641.683 103.186l28.621-14.31-15.999-31.998-28.621 14.31 15.999 31.998z" />
<glyph unicode="&#xe61d;" d="M911.616 510.832c-8.592 160.768-155.84 289.168-335.616 289.168-65.552 0-127.008-18.496-178.496-50.512-42.352 52.016-105.44 82.512-173.504 82.512-13.488 0-27.488-1.344-41.584-4l-23.264-4.384 12.736-19.952c13.152-20.624 20.112-44.368 20.112-68.656 0-70.576-57.424-128-128-128-14.24 0-28.496 2.464-42.384 7.344l-22.272 7.824 0.992-23.584c1.664-39.664 13.712-78.128 34.896-111.2 13.6-21.232 31.008-40.144 50.912-55.744-3.904-15.184-6.144-31.12-6.144-47.648 0-92.704 67.296-160 160-160h656c75.36 0 128 52.64 128 128 0 71.888-44.528 148.512-112.384 158.832zM62.16 504.64c-14.16 22.128-23.568 47.072-27.68 73.168 9.792-1.872 19.648-2.8 29.52-2.8 88.224 0 160 71.776 160 160 0 22.304-4.672 44.208-13.648 64.48 4.624 0.336 9.168 0.512 13.648 0.512 57.456 0 110.864-25.296 147.152-68.656-55.312-42.448-95.824-102-112.128-171.344h-19.024c-62.080 0-115.872-39.168-142.4-96.144-13.6 11.936-25.728 25.6-35.44 40.784zM896 256h-656c-75.36 0-128 52.64-128 128 0 79.392 57.424 144 128 144h45.264l2.448 13.040c24.736 131.52 145.968 226.96 288.288 226.96 167.632 0 304-122.016 304-272v-16h16c56.576 0 96-67.456 96-128 0-58.32-37.68-96-96-96zM225.696 7.185l28.621-14.31-15.999-31.998-28.621 14.31 15.999 31.998zM385.692 7.186l28.621-14.31-15.999-31.998-28.621 14.31 15.999 31.998zM529.656-24.845l15.999 31.998 28.621-14.31-15.999-31.998-28.621 14.31zM689.653-24.85l15.999 31.998 28.621-14.31-15.999-31.998-28.621 14.31zM302.308 152.82l-28.621 14.31 15.999 31.998 28.621-14.31-15.999-31.998zM462.312 152.819l-28.621 14.31 15.999 31.998 28.621-14.31-15.999-31.998zM622.317 152.815l-28.621 14.31 15.999 31.998 28.621-14.31-15.999-31.998zM753.658 167.145l15.999 31.998 28.621-14.31-15.999-31.998-28.621 14.31zM161.697 103.18l28.621-14.31-15.999-31.998-28.621 14.31 15.999 31.998zM321.692 103.183l28.621-14.31-15.999-31.998-28.621 14.31 15.999 31.998zM481.688 103.185l28.621-14.31-15.999-31.998-28.621 14.31 15.999 31.998zM641.683 103.186l28.621-14.31-15.999-31.998-28.621 14.31 15.999 31.998z" />
<glyph unicode="&#xe61e;" d="M911.616 510.832c-8.592 160.768-155.84 289.168-335.616 289.168-31.344 0-61.664-4.4-90.512-12.304-38.832 28.912-84.816 44.304-133.488 44.304-123.52 0-224-100.48-224-224 0-34.624 7.792-57.84 19.952-80.288-41.024-31.904-67.952-84.368-67.952-143.712 0-92.704 67.296-160 160-160h656c75.36 0 128 52.64 128 128 0 71.888-44.528 148.512-112.384 158.832zM160 608c0 105.872 86.128 192 192 192 33.904 0 66.288-8.752 95.088-25.28-93.44-38.144-164.976-116.576-188.064-214.72h-19.024c-23.072 0-44.976-5.504-64.8-15.216-10.528 20.016-15.2 37.328-15.2 63.216zM896 256h-656c-75.36 0-128 52.64-128 128 0 79.392 57.424 144 128 144h45.264l2.448 13.040c24.736 131.52 145.968 226.96 288.288 226.96 167.632 0 304-122.016 304-272v-16h16c56.576 0 96-67.456 96-128 0-58.32-37.68-96-96-96zM0 624h96v-32h-96v32zM336 960h32v-96h-32v96zM75.31 907.319l95.996-95.996-22.627-22.627-95.996 95.996 22.627 22.627zM209.66-24.837l15.999 31.998 28.621-14.31-15.999-31.998-28.621 14.31zM369.658-24.841l15.999 31.998 28.621-14.31-15.999-31.998-28.621 14.31zM529.656-24.845l15.999 31.998 28.621-14.31-15.999-31.998-28.621 14.31zM689.653-24.85l15.999 31.998 28.621-14.31-15.999-31.998-28.621 14.31zM302.308 152.82l-28.621 14.31 15.999 31.998 28.621-14.31-15.999-31.998zM462.312 152.819l-28.621 14.31 15.999 31.998 28.621-14.31-15.999-31.998zM622.317 152.815l-28.621 14.31 15.999 31.998 28.621-14.31-15.999-31.998zM753.658 167.145l15.999 31.998 28.621-14.31-15.999-31.998-28.621 14.31zM161.697 103.18l28.621-14.31-15.999-31.998-28.621 14.31 15.999 31.998zM334.308 56.817l-28.621 14.31 15.999 31.998 28.621-14.31-15.999-31.998zM481.688 103.185l28.621-14.31-15.999-31.998-28.621 14.31 15.999 31.998zM641.683 103.186l28.621-14.31-15.999-31.998-28.621 14.31 15.999 31.998z" />
<glyph unicode="&#xe61f;" d="M464-64c282.32 0 512 229.68 512 512s-229.68 512-512 512c-66.72 0-144.304-12.96-197.632-33.024l-33.344-12.544 31.536-16.592c140.592-73.984 231.44-212.864 231.44-353.84 0-220.56-179.44-400-400-400l-11.040-0.032-40.176 0.944 22.992-27.216c96.048-113.776 244.176-181.696 396.224-181.696zM528 544c0 141.648-83.952 280.976-216.608 363.808 46.144 12.544 102.512 20.192 152.608 20.192 264.672 0 480-215.328 480-480s-215.328-480-480-480c-130.8 0-258.432 53.456-348.16 144.448 229.040 10.4 412.16 199.984 412.16 431.552z" />
<glyph unicode="&#xe620;" d="M0 192h1024v32h-226.336c22.448 44.464 34.336 93.68 34.336 144 0 176.448-143.552 320-320 320s-320-143.552-320-320c0-50.32 11.888-99.536 34.336-144h-226.336v-32zM224 368c0 158.8 129.2 288 288 288s288-129.2 288-288c0-50.816-13.472-100.352-38.72-144h-498.544c-25.264 43.648-38.736 93.2-38.736 144zM411.312 123.312l-22.624-24.976 112-114.336h22.624l112 114.336-22.624 23.808-100.688-100.112z" />
<glyph unicode="&#xe621;" d="M1024 224h-226.336c22.448 44.464 34.336 93.68 34.336 144 0 176.448-143.552 320-320 320-0.896 0-1.744-0.048-3.056-0.144l-24.224-0.4 9.872-22.112c11.552-25.888 17.408-53.264 17.408-81.344 0-110.288-89.712-200-200-200-33.184 0-66.064 8.304-95.056 24l-21.52 11.664-2.048-24.368c-0.72-8.48-1.376-17.648-1.376-27.296 0-50.32 11.888-99.536 34.336-144h-226.336v-32h1024v32zM224 368c0 0.432 0 0.88 0 1.312 27.792-11.376 57.792-17.312 88-17.312 127.92 0 232 104.080 232 232 0 24.352-3.776 48.24-11.28 71.264 149.152-10.656 267.28-135.44 267.28-287.264 0-50.816-13.472-100.352-38.736-144h-498.528c-25.264 43.632-38.736 93.184-38.736 144zM411.312 123.312l-22.624-24.976 112-114.336h22.624l112 114.336-22.624 23.808-100.688-100.112z" />
<glyph unicode="&#xe622;" d="M1024 224h-226.336c22.448 44.464 34.336 93.68 34.336 144 0 176.448-143.552 320-320 320s-320-143.552-320-320c0-50.32 11.888-99.536 34.336-144h-226.336v-32h1024v32zM224 368c0 158.8 129.2 288 288 288s288-129.2 288-288c0-50.816-13.472-100.352-38.72-144h-498.544c-25.264 43.648-38.736 93.2-38.736 144zM388.688 13.664l22.624-23.808 100.688 100.112 100.688-100.976 22.624 24.8-112 114.208h-22.624z" />
<glyph unicode="&#xe623;" d="M832 368c0 176.448-143.552 320-320 320-0.896 0-1.76-0.048-3.056-0.144l-24.224-0.4 9.872-22.112c11.552-25.872 17.408-53.248 17.408-81.344 0-110.288-89.712-200-200-200-33.184 0-66.048 8.304-95.072 24.016l-21.488 11.632-2.064-24.336c-0.688-8-1.376-17.488-1.376-27.312 0-50.32 11.888-99.536 34.336-144h-226.336v-32h1024v32h-226.336c22.448 44.464 34.336 93.68 34.336 144zM224 368c0 0.432 0 0.88 0 1.312 27.792-11.376 57.792-17.312 88-17.312 127.92 0 232 104.080 232 232 0 24.352-3.792 48.24-11.28 71.264 149.168-10.656 267.28-135.44 267.28-287.264 0-50.816-13.472-100.352-38.72-144h-498.544c-25.264 43.648-38.736 93.2-38.736 144zM612.688-11.312l22.624 24.976-112 114.336h-22.624l-112-114.336 22.624-23.808 100.688 100.112z" />
<glyph unicode="&#xe624;" d="M512-64c282.32 0 512 229.68 512 512s-229.68 512-512 512-512-229.68-512-512 229.68-512 512-512zM32 448c0 10.768 0.48 21.408 1.184 32h462.816v-64h-462.816c-0.704 10.592-1.184 21.232-1.184 32zM496-31.6c-54.816 1.808-107.312 12.832-156.016 31.6h156.016v-31.6zM496 896h-156.016c48.704 18.768 101.2 29.776 156.016 31.6v-31.6zM496 864v-64h-309.888c26.384 24.448 55.536 45.92 86.88 64h223.008zM496 768v-64h-389.728c14.352 22.672 30.512 44.096 48.352 64h341.376zM496 672v-64h-436.48c7.84 22.128 17.264 43.504 28.128 64h408.352zM496 576v-64h-459.616c2.928 21.824 7.312 43.184 13.072 64h446.544zM496 384v-64h-446.528c-5.76 20.816-10.144 42.176-13.072 64h459.6zM496 288v-64h-408.336c-10.864 20.496-20.288 41.872-28.128 64h436.464zM496 192v-64h-341.376c-17.84 19.904-34 41.328-48.352 64h389.728zM496 96v-64h-223.008c-31.344 18.080-60.496 39.552-86.88 64h309.888zM992 448c0-259.312-206.72-471.104-464-479.6v959.2c257.28-8.496 464-220.288 464-479.6z" />
<glyph unicode="&#xe625;" d="M512 960c-282.32 0-512-229.68-512-512s229.68-512 512-512 512 229.68 512 512-229.68 512-512 512zM992 448c0-10.768-0.48-21.408-1.184-32h-957.632c-0.704 10.592-1.184 21.232-1.184 32s0.48 21.408 1.184 32h957.632c0.704-10.592 1.184-21.232 1.184-32zM186.112 96h651.76c-26.384-24.448-55.536-45.92-86.88-64h-478c-31.344 18.080-60.496 39.552-86.88 64zM154.624 128c-17.84 19.904-34 41.328-48.352 64h811.472c-14.352-22.672-30.512-44.096-48.352-64h-714.768zM87.664 224c-10.864 20.496-20.288 41.872-28.128 64h904.96c-7.84-22.128-17.264-43.504-28.128-64h-848.704zM49.472 320c-5.76 20.816-10.144 42.176-13.072 64h951.216c-2.928-21.824-7.312-43.184-13.072-64h-925.072zM36.384 512c2.928 21.824 7.312 43.184 13.072 64h925.056c5.76-20.816 10.144-42.176 13.072-64h-951.2zM59.52 608c7.84 22.128 17.264 43.504 28.128 64h848.688c10.864-20.496 20.288-41.872 28.128-64h-904.944zM106.272 704c14.352 22.672 30.512 44.096 48.352 64h714.768c17.84-19.904 34-41.328 48.352-64h-811.472zM186.112 800c26.384 24.448 55.536 45.92 86.88 64h478c31.344-18.080 60.496-39.552 86.88-64h-651.76zM684.016 896h-344.032c53.44 20.592 111.408 32 172.016 32s118.576-11.408 172.016-32zM339.984 0h344.048c-53.44-20.592-111.408-32-172.016-32s-118.592 11.408-172.032 32z" />
<glyph unicode="&#xe626;" d="M877.568 951.52l-27.136 16.96c-6.496-10.384-155.936-252.512-162.128-504.48h-352.608c-6.192 251.968-155.632 494.096-162.128 504.48l-27.136-16.96c1.552-2.464 150.848-244.272 157.264-487.52h-191.696v-32h191.696c-6.416-243.008-155.712-485.056-157.264-487.52l27.136-16.976c6.496 10.384 155.936 252.512 162.128 504.48h352.592c6.192-251.968 155.648-494.096 162.128-504.48l27.136 16.976c-1.536 2.464-150.832 244.272-157.248 487.52h191.696v32h-191.696c6.416 243.008 155.712 485.056 157.264 487.52z" />
<glyph unicode="&#xe627;" d="M176 304h704c82.096 0 144 61.904 144 144 0 72.48-50.912 149.776-128.336 159.072-7.984 181.152-159.568 320.928-351.664 320.928-169.584 0-314.080-106.88-348.976-256h-19.024c-95.392 0-176-87.92-176-192 0-100.336 75.664-176 176-176zM176 640h45.28l2.448 13.040c26.464 140.784 161.152 242.96 320.272 242.96 179.44 0 320-133.536 320-304v-16h16c66 0 112-67.456 112-128 0-63.856-48.144-112-112-112h-704c-82.096 0-144 61.904-144 144 0 86.72 65.952 160 144 160zM336 224h32v-224h-32v224zM176 224h32v-224h-32v224zM496 224h32v-224h-32v224zM656 224h32v-224h-32v224zM816 224h32v-224h-32v224z" />
<glyph unicode="&#xe628;" d="M86.128 431.648c-3.888-15.184-6.128-31.12-6.128-47.648 0-92.704 67.296-160 160-160h656c75.36 0 128 52.64 128 128 0 71.888-44.528 148.512-112.384 158.832-8.592 160.768-155.84 289.168-335.616 289.168-65.552 0-127.008-18.496-178.496-50.512-42.352 52.016-105.44 82.512-173.504 82.512-123.52 0-224-100.48-224-224 0-42.912 12.176-84.608 35.216-120.608 13.6-21.232 31.024-40.144 50.912-55.744zM880 496v-16h16c56.576 0 96-67.456 96-128 0-58.32-37.68-96-96-96h-656c-75.36 0-128 52.64-128 128 0 79.392 57.424 144 128 144h45.264l2.448 13.040c24.736 131.52 145.968 226.96 288.288 226.96 167.632 0 304-122.016 304-272zM224 800c57.456 0 110.864-25.296 147.152-68.656-55.312-42.448-95.824-102-112.128-171.344h-19.024c-62.080 0-115.872-39.168-142.4-96.144-13.584 11.952-25.696 25.616-35.424 40.784-19.744 30.832-30.176 66.576-30.176 103.36 0 105.872 86.128 192 192 192zM304 192h32v-224h-32v224zM464 192h32v-224h-32v224zM624 192h32v-224h-32v224zM784 192h32v-224h-32v224z" />
<glyph unicode="&#xe629;" d="M911.616 510.832c-8.592 160.768-155.84 289.168-335.616 289.168-65.552 0-127.008-18.496-178.496-50.512-42.352 52.016-105.44 82.512-173.504 82.512-13.488 0-27.488-1.344-41.584-4l-23.264-4.384 12.736-19.952c13.152-20.624 20.112-44.368 20.112-68.656 0-70.576-57.424-128-128-128-14.24 0-28.496 2.464-42.384 7.344l-22.272 7.824 0.992-23.584c1.664-39.664 13.712-78.128 34.896-111.2 13.6-21.232 31.008-40.144 50.912-55.744-3.904-15.184-6.144-31.12-6.144-47.648 0-92.704 67.296-160 160-160h656c75.36 0 128 52.64 128 128 0 71.888-44.528 148.512-112.384 158.832zM62.16 504.64c-14.16 22.128-23.568 47.072-27.68 73.168 9.792-1.872 19.648-2.8 29.52-2.8 88.224 0 160 71.776 160 160 0 22.304-4.672 44.208-13.648 64.48 4.624 0.336 9.168 0.512 13.648 0.512 57.456 0 110.864-25.296 147.152-68.656-55.312-42.448-95.824-102-112.128-171.344h-19.024c-62.080 0-115.888-39.168-142.4-96.144-13.584 11.936-25.728 25.6-35.44 40.784zM896 256h-656c-75.36 0-128 52.64-128 128 0 79.392 57.424 144 128 144h45.264l2.448 13.040c24.736 131.52 145.968 226.96 288.288 226.96 167.632 0 304-122.016 304-272v-16h16c56.576 0 96-67.456 96-128 0-58.32-37.68-96-96-96zM304 192h32v-224h-32v224zM464 192h32v-224h-32v224zM624 192h32v-224h-32v224zM784 192h32v-224h-32v224z" />
<glyph unicode="&#xe62a;" d="M911.6 510.832c-8.576 160.768-155.824 289.168-335.6 289.168-31.344 0-61.664-4.4-90.528-12.304-38.8 28.912-84.8 44.304-133.472 44.304-123.52 0-224-100.48-224-224 0-34.624 7.792-57.84 19.952-80.288-41.024-31.888-67.952-84.368-67.952-143.712 0-92.704 67.296-160 160-160h656c75.36 0 128 52.64 128 128 0 71.888-44.528 148.512-112.4 158.832zM160 608c0 105.872 86.128 192 192 192 33.92 0 66.288-8.752 95.088-25.28-93.44-38.144-164.992-116.576-188.064-214.72h-19.024c-23.072 0-44.976-5.504-64.8-15.216-10.528 20.016-15.2 37.328-15.2 63.216zM896 256h-656c-75.36 0-128 52.64-128 128 0 79.392 57.424 144 128 144h45.28l2.448 13.040c24.72 131.52 145.952 226.96 288.272 226.96 167.632 0 304-122.016 304-272v-16h16c56.576 0 96-67.456 96-128 0-58.32-37.68-96-96-96zM0 624h96v-32h-96v32zM336 960h32v-96h-32v96zM75.31 907.319l95.996-95.996-22.627-22.627-95.996 95.996 22.627 22.627zM304 192h32v-224h-32v224zM464 192h32v-224h-32v224zM624 192h32v-224h-32v224zM784 192h32v-224h-32v224z" />
<glyph unicode="&#xe62b;" d="M576 928h393.376l-673.376-673.376-268.688 268.688-22.624-22.624 268.688-268.688-284.688-284.688 22.624-22.624 284.688 284.688 268.688-268.688 22.624 22.624-268.688 268.688 673.376 673.376v-393.376h32v448h-448z" />
<glyph unicode="&#xe62c;" d="M820.688 100.688l52.688-52.688h-41.376c-77.184 0-79.936 71.856-80 80v640c0 66.4-30.096 192-144 192-70.944 0-109.344-48.72-128.256-101.504-19.088 52.784-57.488 101.504-127.744 101.504-72.144 0-110.608-51.376-129.152-105.792-19.344 47.104-57.52 89.792-126.848 89.792v-32c110.336 0 111.984-138.144 112-144.016v-639.984h32v639.856c0.064 6.544 2.784 160.144 112 160.144s111.936-153.6 112-160.144v-639.856h32v639.984c0.016 6.528 1.6 160.016 112 160.016s111.984-153.488 112-160v-640c0-38.736 23.408-112 112-112h41.376l-52.688-52.688 24.976-22.624 82.336 80v22.624l-82.336 80-24.976-22.624z" />
<glyph unicode="&#xe62d;" d="M176 304h704c82.096 0 144 61.904 144 144 0 72.48-50.912 149.776-128.336 159.072-7.984 181.152-159.568 320.928-351.664 320.928-169.584 0-314.080-106.88-348.976-256h-19.024c-95.392 0-176-87.92-176-192 0-100.336 75.664-176 176-176zM176 640h45.28l2.448 13.040c26.464 140.784 161.152 242.96 320.272 242.96 179.44 0 320-133.536 320-304v-16h16c66 0 112-67.456 112-128 0-63.856-48.144-112-112-112h-704c-82.096 0-144 61.904-144 144 0 86.72 65.952 160 144 160zM336 272h32v-80h-32v80zM336 128h32v-80h-32v80zM420.684 251.318l22.627-22.627-48.004-48.004-22.627 22.627 48.004 48.004zM308.686 139.318l22.627-22.627-48.004-48.004-22.627 22.627 48.004 48.004zM443.318 91.314l-22.627-22.627-48.004 48.004 22.627 22.627 48.004-48.004zM260.684 228.686l22.627 22.627 48.004-48.004-22.627-22.627-48.004 48.004zM384 176h80v-32h-80v32zM240 176h80v-32h-80v32zM656 192h32v-80h-32v80zM656 48h32v-80h-32v80zM740.683 171.321l22.627-22.627-48.004-48.004-22.627 22.627 48.004 48.004zM628.684 59.321l22.627-22.627-48.004-48.004-22.627 22.627 48.004 48.004zM763.321 11.316l-22.627-22.627-48.004 48.004 22.627 22.627 48.004-48.004zM580.681 148.684l22.627 22.627 48.004-48.004-22.627-22.627-48.004 48.004zM704 96h80v-32h-80v32zM560 96h80v-32h-80v32z" />
<glyph unicode="&#xe62e;" d="M86.128 431.648c-3.888-15.184-6.128-31.12-6.128-47.648 0-92.704 67.296-160 160-160h656c75.36 0 128 52.64 128 128 0 71.888-44.528 148.512-112.384 158.832-8.592 160.768-155.84 289.168-335.616 289.168-65.552 0-127.008-18.496-178.496-50.512-42.352 52.016-105.44 82.512-173.504 82.512-123.52 0-224-100.48-224-224 0-42.912 12.176-84.608 35.216-120.608 13.6-21.232 31.024-40.144 50.912-55.744zM880 496v-16h16c56.576 0 96-67.456 96-128 0-58.32-37.68-96-96-96h-656c-75.36 0-128 52.64-128 128 0 79.392 57.424 144 128 144h45.264l2.448 13.040c24.736 131.52 145.968 226.96 288.288 226.96 167.632 0 304-122.016 304-272zM224 800c57.456 0 110.864-25.296 147.152-68.656-55.312-42.448-95.824-102-112.128-171.344h-19.024c-62.080 0-115.872-39.168-142.4-96.144-13.584 11.952-25.696 25.616-35.424 40.784-19.744 30.832-30.176 66.576-30.176 103.36 0 105.872 86.128 192 192 192zM368 192h32v-64h-32v64zM368 64h32v-64h-32v64zM436.687 171.319l22.627-22.627-31.995-31.995-22.627 22.627 31.995 31.995zM340.687 75.319l22.627-22.627-31.995-31.995-22.627 22.627 31.995 31.995zM459.321 43.313l-22.627-22.627-31.995 31.995 22.627 22.627 31.995-31.995zM308.681 148.687l22.627 22.627 31.995-31.995-22.627-22.627-31.995 31.995zM416 112h64v-32h-64v32zM288 112h64v-32h-64v32zM688 160h32v-64h-32v64zM688 32h32v-64h-32v64zM756.684 139.322l22.627-22.627-31.995-31.995-22.627 22.627 31.995 31.995zM660.685 43.322l22.627-22.627-31.995-31.995-22.627 22.627 31.995 31.995zM779.322 11.315l-22.627-22.627-31.995 31.995 22.627 22.627 31.995-31.995zM628.679 116.685l22.627 22.627 31.995-31.995-22.627-22.627-31.995 31.995zM736 80h64v-32h-64v32zM608 80h64v-32h-64v32z" />
<glyph unicode="&#xe62f;" d="M911.616 510.832c-8.592 160.768-155.84 289.168-335.616 289.168-65.552 0-127.008-18.496-178.496-50.512-42.352 52.016-105.44 82.512-173.504 82.512-13.488 0-27.488-1.344-41.584-4l-23.264-4.384 12.736-19.952c13.152-20.624 20.112-44.368 20.112-68.656 0-70.576-57.424-128-128-128-14.24 0-28.496 2.464-42.384 7.344l-22.272 7.824 0.992-23.584c1.664-39.664 13.712-78.128 34.896-111.2 13.6-21.232 31.008-40.144 50.912-55.744-3.904-15.184-6.144-31.12-6.144-47.648 0-92.704 67.296-160 160-160h656c75.36 0 128 52.64 128 128 0 71.888-44.528 148.512-112.384 158.832zM62.16 504.64c-14.16 22.128-23.568 47.072-27.68 73.168 9.792-1.872 19.648-2.8 29.52-2.8 88.224 0 160 71.776 160 160 0 22.304-4.672 44.208-13.648 64.48 4.624 0.336 9.168 0.512 13.648 0.512 57.456 0 110.864-25.296 147.152-68.656-55.312-42.448-95.824-102-112.128-171.344h-19.024c-62.080 0-115.888-39.168-142.4-96.144-13.584 11.936-25.728 25.6-35.44 40.784zM896 256h-656c-75.36 0-128 52.64-128 128 0 79.392 57.424 144 128 144h45.264l2.448 13.040c24.736 131.52 145.968 226.96 288.288 226.96 167.632 0 304-122.016 304-272v-16h16c56.576 0 96-67.456 96-128 0-58.32-37.68-96-96-96zM368 192h32v-64h-32v64zM368 64h32v-64h-32v64zM427.313 116.681l-22.627 22.627 31.995 31.995 22.627-22.627-31.995-31.995zM331.313 20.681l-22.627 22.627 31.995 31.995 22.627-22.627-31.995-31.995zM459.321 43.313l-22.627-22.627-31.995 31.995 22.627 22.627 31.995-31.995zM308.681 148.687l22.627 22.627 31.995-31.995-22.627-22.627-31.995 31.995zM416 112h64v-32h-64v32zM288 112h64v-32h-64v32zM688 160h32v-64h-32v64zM688 32h32v-64h-32v64zM747.316 84.678l-22.627 22.627 31.995 31.995 22.627-22.627-31.995-31.995zM651.315-11.322l-22.627 22.627 31.995 31.995 22.627-22.627-31.995-31.995zM779.322 11.315l-22.627-22.627-31.995 31.995 22.627 22.627 31.995-31.995zM628.679 116.685l22.627 22.627 31.995-31.995-22.627-22.627-31.995 31.995zM736 80h64v-32h-64v32zM608 80h64v-32h-64v32z" />
<glyph unicode="&#xe630;" d="M911.6 510.832c-8.576 160.768-155.824 289.168-335.6 289.168-31.344 0-61.664-4.4-90.528-12.304-38.816 28.912-84.8 44.304-133.472 44.304-123.52 0-224-100.48-224-224 0-34.624 7.792-57.84 19.952-80.288-41.024-31.888-67.952-84.368-67.952-143.712 0-92.704 67.296-160 160-160h656c75.36 0 128 52.64 128 128 0 71.888-44.528 148.512-112.4 158.832zM160 608c0 105.872 86.128 192 192 192 33.904 0 66.288-8.752 95.088-25.28-93.44-38.144-164.992-116.576-188.064-214.72h-19.024c-23.072 0-44.976-5.504-64.8-15.216-10.528 20.016-15.2 37.328-15.2 63.216zM896 256h-656c-75.36 0-128 52.64-128 128 0 79.392 57.424 144 128 144h45.28l2.448 13.040c24.72 131.52 145.952 226.96 288.272 226.96 167.632 0 304-122.016 304-272v-16h16c56.576 0 96-67.456 96-128 0-58.32-37.68-96-96-96zM0 624h96v-32h-96v32zM336 960h32v-96h-32v96zM75.31 907.319l95.996-95.996-22.627-22.627-95.996 95.996 22.627 22.627zM368 192h32v-64h-32v64zM368 64h32v-64h-32v64zM427.313 116.681l-22.627 22.627 31.995 31.995 22.627-22.627-31.995-31.995zM331.313 20.681l-22.627 22.627 31.995 31.995 22.627-22.627-31.995-31.995zM459.321 43.313l-22.627-22.627-31.995 31.995 22.627 22.627 31.995-31.995zM308.681 148.687l22.627 22.627 31.995-31.995-22.627-22.627-31.995 31.995zM416 112h64v-32h-64v32zM288 112h64v-32h-64v32zM688 160h32v-64h-32v64zM688 32h32v-64h-32v64zM747.316 84.678l-22.627 22.627 31.995 31.995 22.627-22.627-31.995-31.995zM651.315-11.322l-22.627 22.627 31.995 31.995 22.627-22.627-31.995-31.995zM779.322 11.315l-22.627-22.627-31.995 31.995 22.627 22.627 31.995-31.995zM628.679 116.685l22.627 22.627 31.995-31.995-22.627-22.627-31.995 31.995zM736 80h64v-32h-64v32zM608 80h64v-32h-64v32z" />
<glyph unicode="&#xe631;" d="M27.312 308.688l123.312 123.312h218.32c3.072-27.712 14.080-53.056 30.656-73.776l-166.224-166.224h-153.376v-32h144v-144h32v153.376l166.224 166.224c20.704-16.576 46.048-27.584 73.776-30.656v-218.32l-123.312-123.312 22.624-22.624 116.688 116.688 116.688-116.688 22.624 22.624-123.312 123.312v218.32c27.712 3.072 53.056 14.080 73.776 30.656l166.224-166.224v-153.376h32v144h144v32h-153.376l-166.224 166.224c16.576 20.704 27.584 46.048 30.656 73.776h218.32l123.312-123.312 22.624 22.624-116.688 116.688 116.688 116.688-22.624 22.624-123.312-123.312h-218.32c-3.072 27.712-14.080 53.056-30.656 73.776l166.224 166.224h153.376v32h-144v144h-32v-153.376l-166.224-166.224c-20.704 16.576-46.048 27.584-73.776 30.656v218.32l123.312 123.312-22.624 22.624-116.688-116.688-116.688 116.688-22.624-22.624 123.312-123.312v-218.32c-27.712-3.072-53.056-14.080-73.776-30.656l-166.224 166.224v153.376h-32v-144h-144v-32h153.376l166.224-166.224c-16.576-20.704-27.584-46.048-30.656-73.776h-218.32l-123.312 123.312-22.624-22.624 116.688-116.688-116.688-116.688 22.624-22.624zM512 560c61.76 0 112-50.24 112-112s-50.24-112-112-112-112 50.24-112 112 50.24 112 112 112z" />
<glyph unicode="&#xe632;" d="M512 992.704l-139.376-400.704h-387.264l315.872-245.68-140.624-421.856 351.392 263.536 351.376-263.536-140.624 421.856 315.888 245.68h-387.264l-139.376 400.704zM685.248 357.68l115.376-346.144-288.624 216.464-288.624-216.464 115.376 346.144-260.112 202.32h316.736l116.624 335.296 116.624-335.296h316.736l-260.112-202.32z" />
<glyph unicode="&#xe633;" d="M86.128 431.648c-3.888-15.184-6.128-31.12-6.128-47.648 0-92.704 67.296-160 160-160h656c75.36 0 128 52.64 128 128 0 71.888-44.528 148.512-112.384 158.832-8.592 160.768-155.84 289.168-335.616 289.168-65.552 0-127.008-18.496-178.496-50.512-42.352 52.016-105.44 82.512-173.504 82.512-123.52 0-224-100.48-224-224 0-42.912 12.176-84.608 35.216-120.608 13.6-21.232 31.024-40.144 50.912-55.744zM880 496v-16h16c56.576 0 96-67.456 96-128 0-58.32-37.68-96-96-96h-656c-75.36 0-128 52.64-128 128 0 79.392 57.424 144 128 144h45.264l2.448 13.040c24.736 131.52 145.968 226.96 288.288 226.96 167.632 0 304-122.016 304-272zM224 800c57.456 0 110.864-25.296 147.152-68.656-55.312-42.448-95.824-102-112.128-171.344h-19.024c-62.080 0-115.872-39.168-142.4-96.144-13.584 11.952-25.696 25.616-35.424 40.784-19.744 30.832-30.176 66.576-30.176 103.36 0 105.872 86.128 192 192 192zM493.888-39.936l77.696 135.936h-83.312l38.432 89.696-29.408 12.608-57.568-134.304h76.688l-50.304-88.064zM653.888-39.936l77.696 135.936h-83.312l38.432 89.696-29.408 12.608-57.568-134.304h76.688l-50.304-88.064zM333.888-39.936l77.696 135.936h-83.312l38.432 89.696-29.408 12.608-57.568-134.304h76.688l-50.304-88.064z" />
<glyph unicode="&#xe634;" d="M911.616 510.832c-8.592 160.768-155.84 289.168-335.616 289.168-65.552 0-127.008-18.496-178.496-50.512-42.352 52.016-105.44 82.512-173.504 82.512-13.488 0-27.488-1.344-41.584-4l-23.264-4.384 12.736-19.952c13.152-20.624 20.112-44.368 20.112-68.656 0-70.576-57.424-128-128-128-14.24 0-28.496 2.464-42.384 7.344l-22.272 7.824 0.992-23.584c1.664-39.664 13.712-78.128 34.896-111.2 13.6-21.232 31.008-40.144 50.912-55.744-3.904-15.184-6.144-31.12-6.144-47.648 0-92.704 67.296-160 160-160h656c75.36 0 128 52.64 128 128 0 71.888-44.528 148.512-112.384 158.832zM62.16 504.64c-14.16 22.128-23.568 47.072-27.68 73.168 9.792-1.872 19.648-2.8 29.52-2.8 88.224 0 160 71.776 160 160 0 22.304-4.672 44.208-13.648 64.48 4.624 0.336 9.168 0.512 13.648 0.512 57.456 0 110.864-25.296 147.152-68.656-55.312-42.448-95.824-102-112.128-171.344h-19.024c-62.080 0-115.888-39.168-142.4-96.144-13.584 11.936-25.728 25.6-35.44 40.784zM896 256h-656c-75.36 0-128 52.64-128 128 0 79.392 57.424 144 128 144h45.264l2.448 13.040c24.736 131.52 145.968 226.96 288.288 226.96 167.632 0 304-122.016 304-272v-16h16c56.576 0 96-67.456 96-128 0-58.32-37.68-96-96-96zM497.296 198.304l-57.568-134.304h76.688l-50.304-88.064 27.776-15.872 77.696 135.936h-83.312l38.432 89.696zM657.296 198.304l-57.568-134.304h76.688l-50.304-88.064 27.776-15.872 77.696 135.936h-83.312l38.432 89.696zM337.296 198.304l-57.568-134.304h76.688l-50.304-88.064 27.776-15.872 77.696 135.936h-83.312l38.432 89.696z" />
<glyph unicode="&#xe635;" d="M911.6 510.832c-8.576 160.768-155.824 289.168-335.6 289.168-31.344 0-61.664-4.4-90.528-12.304-38.816 28.912-84.8 44.304-133.472 44.304-123.52 0-224-100.48-224-224 0-34.624 7.792-57.84 19.952-80.288-41.024-31.888-67.952-84.368-67.952-143.712 0-92.704 67.296-160 160-160h656c75.36 0 128 52.64 128 128 0 71.888-44.528 148.512-112.4 158.832zM160 608c0 105.872 86.128 192 192 192 33.904 0 66.288-8.752 95.088-25.28-93.44-38.144-164.992-116.576-188.064-214.72h-19.024c-23.072 0-44.976-5.504-64.8-15.216-10.528 20.016-15.2 37.328-15.2 63.216zM896 256h-656c-75.36 0-128 52.64-128 128 0 79.392 57.424 144 128 144h45.28l2.448 13.040c24.72 131.52 145.952 226.96 288.272 226.96 167.632 0 304-122.016 304-272v-16h16c56.576 0 96-67.456 96-128 0-58.32-37.68-96-96-96zM0 624h96v-32h-96v32zM336 960h32v-96h-32v96zM75.31 907.319l95.996-95.996-22.627-22.627-95.996 95.996 22.627 22.627zM497.296 198.304l-57.568-134.304h76.704l-50.32-88.064 27.776-15.872 77.68 135.936h-83.296l38.432 89.696zM657.296 198.304l-57.568-134.304h76.704l-50.32-88.064 27.776-15.872 77.68 135.936h-83.296l38.432 89.696zM337.296 198.304l-57.568-134.304h76.704l-50.32-88.064 27.776-15.872 77.68 135.936h-83.296l38.432 89.696z" />
<glyph unicode="&#xe636;" d="M895.664 607.072c-7.984 181.152-159.568 320.928-351.664 320.928-169.584 0-314.080-106.88-348.976-256h-19.024c-95.392 0-176-87.92-176-192 0-100.336 75.664-176 176-176h704c82.096 0 144 61.904 144 144 0 72.48-50.912 149.776-128.336 159.072zM880 336h-704c-82.096 0-144 61.904-144 144 0 86.72 65.952 160 144 160h45.28l2.448 13.040c26.464 140.784 161.152 242.96 320.272 242.96 179.44 0 320-133.536 320-304v-16h16c66 0 112-67.456 112-128 0-63.856-48.144-112-112-112zM226.068 7.966l127.994 223.996 27.782-15.875-127.994-223.996-27.782 15.875zM66.074 7.974l127.994 223.996 27.782-15.875-127.994-223.996-27.782 15.875zM386.061 7.96l127.994 223.996 27.782-15.875-127.994-223.996-27.782 15.875zM546.055 7.953l127.994 223.996 27.782-15.875-127.994-223.996-27.782 15.875zM706.049 7.947l127.994 223.996 27.782-15.875-127.994-223.996-27.782 15.875z" />
<glyph unicode="&#xe637;" d="M895.664 607.072c-7.984 181.152-159.568 320.928-351.664 320.928-169.584 0-314.080-106.88-348.976-256h-19.024c-95.392 0-176-87.92-176-192 0-100.336 75.664-176 176-176h704c82.096 0 144 61.904 144 144 0 72.48-50.912 149.776-128.336 159.072zM880 336h-704c-82.096 0-144 61.904-144 144 0 86.72 65.952 160 144 160h45.28l2.448 13.040c26.464 140.784 161.152 242.96 320.272 242.96 179.44 0 320-133.536 320-304v-16h16c66 0 112-67.456 112-128 0-63.856-48.144-112-112-112zM497.296 230.304l-57.568-134.304h60.704l-50.32-88.064 27.776-15.872 77.68 135.936h-67.296l38.432 89.696zM657.296 230.304l-57.568-134.304h60.704l-50.32-88.064 27.776-15.872 77.68 135.936h-67.296l38.432 89.696zM337.296 230.304l-57.568-134.304h60.704l-50.32-88.064 27.776-15.872 77.68 135.936h-67.296l38.432 89.696z" />
<glyph unicode="&#xe638;" d="M512 176c149.984 0 272 122.016 272 272s-122.016 272-272 272-272-122.016-272-272 122.016-272 272-272zM512 688c132.336 0 240-107.664 240-240s-107.664-240-240-240-240 107.664-240 240 107.664 240 240 240zM496 960h32v-160h-32v160zM496 96h32v-160h-32v160zM864 464h160v-32h-160v32zM0 464h160v-32h-160v32zM836.686 795.325l22.627-22.627-79.998-79.998-22.627 22.627 79.998 79.998zM244.696 203.325l22.627-22.627-79.998-79.998-22.627 22.627 79.998 79.998zM836.691 100.67l-79.998 79.998 22.627 22.627 79.998-79.998-22.627-22.627zM187.309 795.322l79.998-79.998-22.627-22.627-79.998 79.998 22.627 22.627z" />
<glyph unicode="&#xe639;" d="M0 384h160v-32h-160v32zM864 384h160v-32h-160v32zM496 896h32v-176h-32v176zM107.314 731.318l128.002-128.002-22.627-22.627-128.002 128.002 22.627 22.627zM788.677 603.309l128.002 128.002 22.627-22.627-128.002-128.002-22.627 22.627zM635.312 98.336l-22.624 23.808-100.688-100.112-100.688 100.976-22.624-24.8 112-114.208h22.624zM832 368c0 176.448-143.552 320-320 320s-320-143.552-320-320c0-50.32 11.888-99.536 34.336-144h-226.336v-32h1024v32h-226.336c22.448 44.464 34.336 93.68 34.336 144zM224 368c0 158.8 129.2 288 288 288s288-129.2 288-288c0-50.816-13.472-100.352-38.72-144h-498.544c-25.264 43.648-38.736 93.2-38.736 144z" />
<glyph unicode="&#xe63a;" d="M0 384h160v-32h-160v32zM864 384h160v-32h-160v32zM496 896h32v-176h-32v176zM107.314 731.318l128.002-128.002-22.627-22.627-128.002 128.002 22.627 22.627zM788.677 603.309l128.002 128.002 22.627-22.627-128.002-128.002-22.627 22.627zM612.688-11.312l22.624 24.976-112 114.336h-22.624l-112-114.336 22.624-23.808 100.688 100.112zM832 368c0 176.448-143.552 320-320 320s-320-143.552-320-320c0-50.32 11.888-99.536 34.336-144h-226.336v-32h1024v32h-226.336c22.448 44.464 34.336 93.68 34.336 144zM224 368c0 158.8 129.2 288 288 288s288-129.2 288-288c0-50.816-13.472-100.352-38.72-144h-498.544c-25.264 43.648-38.736 93.2-38.736 144z" />
<glyph unicode="&#xe63b;" d="M768 720c0-1.44-2.928-144-256-144-251.28 0-255.92 138.224-256.048 145.328-5.968 71.488-67.12 206.672-255.952 206.672v-32c206.048 0 223.424-170.128 224-176 0-1.872 0.432-46.384 37.808-90.352 31.392-36.96 78.224-61.824 139.312-74.88-112.88-44.432-193.12-154.304-193.12-282.768 0-167.632 136.368-304 304-304s304 136.368 304 304c0 128.464-80.24 238.336-193.12 282.768 61.088 13.040 107.904 37.92 139.312 74.88 37.376 43.968 37.808 88.48 37.76 89.024 0.032 0.432 4 44.384 33.36 88.448 39.312 58.976 103.472 88.88 190.688 88.88v32c-188.832 0-249.984-135.184-256-208zM784 272c0-149.984-122.016-272-272-272s-272 122.016-272 272 122.016 272 272 272 272-122.016 272-272z" />
<glyph unicode="&#xe63c;" d="M895.664 607.072c-7.984 181.152-159.568 320.928-351.664 320.928-169.584 0-314.080-106.88-348.976-256h-19.024c-95.392 0-176-87.92-176-192 0-100.336 75.664-176 176-176h704c82.096 0 144 61.904 144 144 0 72.48-50.912 149.776-128.336 159.072zM880 336h-704c-82.096 0-144 61.904-144 144 0 86.72 65.952 160 144 160h45.28l2.448 13.040c26.464 140.784 161.152 242.96 320.272 242.96 179.44 0 320-133.536 320-304v-16h16c66 0 112-67.456 112-128 0-63.856-48.144-112-112-112zM497.296 230.304l-57.568-134.304h60.704l-50.32-88.064 27.776-15.872 77.68 135.936h-67.296l38.432 89.696zM610.052 7.95l127.994 223.996 27.782-15.875-127.994-223.996-27.782 15.875zM210.068 7.968l127.994 223.996 27.782-15.875-127.994-223.996-27.782 15.875z" />
<glyph unicode="&#xe63d;" d="M911.616 510.832c-8.592 160.768-155.84 289.168-335.616 289.168-65.552 0-127.008-18.496-178.496-50.512-42.352 52.016-105.44 82.512-173.504 82.512-123.52 0-224-100.48-224-224 0-42.912 12.176-84.608 35.216-120.608 13.6-21.232 31.008-40.144 50.912-55.744-3.888-15.184-6.128-31.12-6.128-47.648 0-92.704 67.296-160 160-160h656c75.36 0 128 52.64 128 128 0 71.888-44.528 148.512-112.384 158.832zM62.176 504.64c-19.744 30.832-30.176 66.576-30.176 103.36 0 105.872 86.128 192 192 192 57.456 0 110.864-25.296 147.152-68.656-55.312-42.448-95.824-102-112.128-171.344h-19.024c-62.080 0-115.872-39.168-142.4-96.144-13.584 11.936-25.728 25.6-35.424 40.784zM896 256h-656c-75.36 0-128 52.64-128 128 0 79.392 57.424 144 128 144h45.264l2.448 13.040c24.736 131.52 145.968 226.96 288.288 226.96 167.632 0 304-122.016 304-272v-16h16c56.576 0 96-67.456 96-128 0-58.32-37.68-96-96-96zM497.296 198.304l-57.568-134.304h60.688l-50.304-88.064 27.776-15.872 77.696 135.936h-67.312l38.432 89.696zM226.066-24.032l127.994 223.996 27.782-15.875-127.994-223.996-27.782 15.875zM610.052-24.048l127.994 223.996 27.782-15.875-127.994-223.996-27.782 15.875z" />
<glyph unicode="&#xe63e;" d="M911.616 510.832c-8.592 160.768-155.84 289.168-335.616 289.168-65.552 0-127.008-18.496-178.496-50.512-42.352 52.016-105.44 82.512-173.504 82.512-13.488 0-27.488-1.344-41.584-4l-23.264-4.384 12.736-19.952c13.152-20.624 20.112-44.368 20.112-68.656 0-70.576-57.424-128-128-128-14.24 0-28.496 2.464-42.384 7.344l-22.272 7.824 0.992-23.584c1.664-39.664 13.712-78.128 34.896-111.2 13.6-21.232 31.008-40.144 50.912-55.744-3.904-15.184-6.144-31.12-6.144-47.648 0-92.704 67.296-160 160-160h656c75.36 0 128 52.64 128 128 0 71.888-44.528 148.512-112.384 158.832zM62.16 504.64c-14.16 22.128-23.568 47.072-27.68 73.168 9.792-1.872 19.648-2.8 29.52-2.8 88.224 0 160 71.776 160 160 0 22.304-4.672 44.208-13.648 64.48 4.624 0.336 9.168 0.512 13.648 0.512 57.456 0 110.864-25.296 147.152-68.656-55.312-42.448-95.824-102-112.128-171.344h-19.024c-62.080 0-115.872-39.168-142.4-96.144-13.6 11.936-25.728 25.6-35.44 40.784zM896 256h-656c-75.36 0-128 52.64-128 128 0 79.392 57.424 144 128 144h45.264l2.448 13.040c24.736 131.52 145.968 226.96 288.288 226.96 167.632 0 304-122.016 304-272v-16h16c56.576 0 96-67.456 96-128 0-58.32-37.68-96-96-96zM497.296 198.304l-57.568-134.304h60.688l-50.304-88.064 27.776-15.872 77.696 135.936h-67.312l38.432 89.696zM226.066-24.032l127.994 223.996 27.782-15.875-127.994-223.996-27.782 15.875zM610.052-24.048l127.994 223.996 27.782-15.875-127.994-223.996-27.782 15.875z" />
<glyph unicode="&#xe63f;" d="M911.616 510.832c-8.592 160.768-155.84 289.168-335.616 289.168-31.344 0-61.664-4.4-90.512-12.304-38.832 28.912-84.816 44.304-133.488 44.304-123.52 0-224-100.48-224-224 0-34.624 7.792-57.84 19.952-80.288-41.024-31.904-67.952-84.368-67.952-143.712 0-92.704 67.296-160 160-160h656c75.36 0 128 52.64 128 128 0 71.888-44.528 148.512-112.384 158.832zM160 608c0 105.872 86.128 192 192 192 33.904 0 66.288-8.752 95.088-25.28-93.44-38.144-164.976-116.576-188.064-214.72h-19.024c-23.072 0-44.976-5.504-64.8-15.216-10.528 20.016-15.2 37.328-15.2 63.216zM896 256h-656c-75.36 0-128 52.64-128 128 0 79.392 57.424 144 128 144h45.264l2.448 13.040c24.736 131.52 145.968 226.96 288.288 226.96 167.632 0 304-122.016 304-272v-16h16c56.576 0 96-67.456 96-128 0-58.32-37.68-96-96-96zM0 624h96v-32h-96v32zM336 960h32v-96h-32v96zM148.69 788.681l-95.996 95.996 22.627 22.627 95.996-95.996-22.627-22.627zM497.296 198.304l-57.568-134.304h60.688l-50.304-88.064 27.776-15.872 77.696 135.936h-67.312l38.432 89.696zM226.066-24.032l127.994 223.996 27.782-15.875-127.994-223.996-27.782 15.875zM610.052-24.048l127.994 223.996 27.782-15.875-127.994-223.996-27.782 15.875z" />
<glyph unicode="&#xe640;" d="M86.128 351.648c-3.888-15.184-6.128-31.12-6.128-47.648 0-92.704 67.296-160 160-160h656c75.36 0 128 52.64 128 128 0 71.888-44.528 148.512-112.384 158.832-8.592 160.768-155.84 289.168-335.616 289.168-65.552 0-127.008-18.496-178.496-50.512-42.352 52.016-105.44 82.512-173.504 82.512-123.52 0-224-100.48-224-224 0-42.912 12.176-84.608 35.216-120.608 13.6-21.232 31.024-40.144 50.912-55.744zM880 416v-16h16c56.576 0 96-67.456 96-128 0-58.32-37.68-96-96-96h-656c-75.36 0-128 52.64-128 128 0 79.392 57.424 144 128 144h45.264l2.448 13.040c24.736 131.52 145.968 226.96 288.288 226.96 167.632 0 304-122.016 304-272zM224 720c57.456 0 110.864-25.296 147.152-68.656-55.312-42.448-95.824-102-112.128-171.344h-19.024c-62.080 0-115.872-39.168-142.4-96.144-13.584 11.952-25.696 25.616-35.424 40.784-19.744 30.832-30.176 66.576-30.176 103.36 0 105.872 86.128 192 192 192z" />
<glyph unicode="&#xe641;" d="M911.616 430.832c-8.592 160.768-155.84 289.168-335.616 289.168-65.552 0-127.008-18.496-178.496-50.512-42.352 52.016-105.44 82.512-173.504 82.512-13.488 0-27.488-1.344-41.584-4l-23.264-4.384 12.736-19.952c13.152-20.624 20.112-44.368 20.112-68.656 0-70.576-57.424-128-128-128-14.24 0-28.496 2.464-42.384 7.344l-22.272 7.824 0.992-23.584c1.664-39.664 13.712-78.128 34.896-111.2 13.6-21.232 31.008-40.144 50.912-55.744-3.904-15.184-6.144-31.12-6.144-47.648 0-92.704 67.296-160 160-160h656c75.36 0 128 52.64 128 128 0 71.888-44.528 148.512-112.384 158.832zM62.16 424.64c-14.16 22.128-23.568 47.072-27.68 73.168 9.792-1.872 19.648-2.8 29.52-2.8 88.224 0 160 71.776 160 160 0 22.304-4.672 44.208-13.648 64.48 4.624 0.336 9.168 0.512 13.648 0.512 57.456 0 110.864-25.296 147.152-68.656-55.312-42.448-95.824-102-112.128-171.344h-19.024c-62.080 0-115.888-39.168-142.4-96.144-13.584 11.936-25.728 25.6-35.44 40.784zM896 176h-656c-75.36 0-128 52.64-128 128 0 79.392 57.424 144 128 144h45.264l2.448 13.040c24.736 131.52 145.968 226.96 288.288 226.96 167.632 0 304-122.016 304-272v-16h16c56.576 0 96-67.456 96-128 0-58.32-37.68-96-96-96z" />
<glyph unicode="&#xe642;" d="M911.6 430.832c-8.576 160.768-155.824 289.168-335.6 289.168-31.344 0-61.664-4.4-90.528-12.304-38.8 28.912-84.8 44.304-133.472 44.304-123.52 0-224-100.48-224-224 0-34.624 7.792-57.84 19.952-80.288-41.024-31.888-67.952-84.368-67.952-143.712 0-92.704 67.296-160 160-160h656c75.36 0 128 52.64 128 128 0 71.888-44.528 148.512-112.4 158.832zM160 528c0 105.872 86.128 192 192 192 33.92 0 66.288-8.752 95.088-25.28-93.44-38.144-164.992-116.576-188.064-214.72h-19.024c-23.072 0-44.976-5.504-64.8-15.216-10.528 20.016-15.2 37.328-15.2 63.216zM896 176h-656c-75.36 0-128 52.64-128 128 0 79.392 57.424 144 128 144h45.28l2.448 13.040c24.72 131.52 145.952 226.96 288.272 226.96 167.632 0 304-122.016 304-272v-16h16c56.576 0 96-67.456 96-128 0-58.32-37.68-96-96-96zM0 544h96v-32h-96v32zM336 880h32v-96h-32v96zM75.31 827.319l95.996-95.996-22.627-22.627-95.996 95.996 22.627 22.627z" />
<glyph unicode="&#xe643;" d="M976 576c0 24.56-3.136 240-112 240-38.256 0-63.408-26.624-80-62.192v14.192c0 66.4-30.096 192-144 192-70.944 0-109.344-48.72-128.256-101.504-19.088 52.784-57.488 101.504-127.744 101.504-72.144 0-110.608-51.376-129.152-105.792-19.344 47.104-57.52 89.792-126.848 89.792v-32c110.336 0 111.984-138.144 112-144.016v-639.984h32v639.856c0.064 6.544 2.784 160.144 112 160.144s111.936-153.6 112-160.144v-639.856h32v640c0 1.6 1.28 160 112 160 110.4 0 111.984-153.488 112-160v-640c0-1.952 0.24-3.824 0.304-5.76-61.792-49.216-136.624-74.24-224.304-74.24v-32c94.624 0 169.216 27.328 228.144 69.808 18.624-95.216 93.984-159.056 97.616-162.112l20.496 24.592c-0.848 0.704-79.472 67.264-89.248 160.752 179.024 158.016 190.864 462.48 190.992 466.96zM784 576c0 53.968 14.704 208 80 208 65.2 0 79.968-154.048 80-207.536-0.032-1.328-4.656-135.36-59.104-267.12-26.88-65.040-60.56-118.064-100.896-158.928v425.584z" />
<glyph unicode="&#xe644;" d="M652.784 940.192l-0.88 3.296c-1.728-0.464-3.376-1.104-5.104-1.6-42.976 11.728-88.128 18.128-134.768 18.128-282.32 0-512-229.68-512-512s229.68-512 512-512c46.656 0 91.808 6.384 134.8 18.144 1.712-0.48 3.344-1.12 5.072-1.6l0.88 3.28c214.064 61.328 371.248 258.672 371.248 492.176s-157.184 430.848-371.248 492.176zM992.032 448.016c0-10.768-0.48-21.424-1.184-32.016h-669.6c-0.624 10.608-1.216 21.216-1.216 32.016 0 10.784 0.592 21.392 1.216 31.984h669.6c0.704-10.576 1.184-21.216 1.184-31.984zM545.76 32c-30.304 18.128-58.288 39.488-83.28 64h375.408c-26.368-24.448-55.536-45.92-86.896-64h-205.232zM684.016 0c-12.048-4.64-24.336-8.8-36.816-12.464-12.32 3.664-24.368 7.824-36.16 12.464h72.976zM433.088 128c-16.736 19.904-31.76 41.312-45.072 64h529.728c-14.352-22.672-30.496-44.096-48.336-64h-436.32zM370.816 224c-10.016 20.528-18.832 41.824-25.984 64h619.664c-7.84-22.128-17.264-43.504-28.128-64h-565.552zM335.856 320c-5.216 20.784-8.992 42.176-11.648 64h663.424c-2.928-21.824-7.312-43.184-13.072-64h-638.704zM324.224 512c2.624 21.824 6.416 43.216 11.632 64h638.72c5.76-20.816 10.16-42.176 13.072-64h-663.424zM344.816 608c7.152 22.176 15.968 43.472 25.984 64h565.6c10.864-20.496 20.288-41.872 28.128-64h-619.712zM388 704c13.296 22.688 28.336 44.096 45.056 64h436.384c17.824-19.904 33.984-41.328 48.336-64h-529.776zM462.432 800c24.992 24.512 52.992 45.872 83.28 64h205.344c31.344-18.080 60.48-39.552 86.88-64h-375.504zM610.976 896c11.824 4.656 23.904 8.816 36.256 12.496 12.512-3.664 24.816-7.84 36.88-12.496h-73.136zM512.032-31.984c-264.672 0-480 215.328-480 480s215.328 480 480 480c26.32 0 52.128-2.224 77.296-6.32-182.496-76.592-301.296-259.024-301.296-473.68 0-214.64 118.816-397.088 301.328-473.68-25.184-4.096-51.008-6.32-77.328-6.32z" />
<glyph unicode="&#xe645;" d="M512 960c-46.656 0-91.808-6.384-134.8-18.144-1.712 0.48-3.344 1.136-5.072 1.6l-0.88-3.28c-214.064-61.328-371.248-258.672-371.248-492.176s157.184-430.848 371.248-492.176l0.88-3.296c1.728 0.464 3.376 1.104 5.104 1.6 42.976-11.744 88.128-18.128 134.768-18.128 282.32 0 512 229.68 512 512s-229.68 512-512 512zM992 448c0-10.768-0.48-21.408-1.184-32h-256.032c0.576 10.608 1.216 21.216 1.216 32s-0.64 21.392-1.232 32h256.048c0.704-10.592 1.184-21.232 1.184-32zM605.664 96h232.224c-26.368-24.448-55.52-45.92-86.88-64h-215.456c25.44 19.024 48.944 40.368 70.112 64zM632 128c15.136 20.128 28.704 41.552 40.784 64h244.96c-14.352-22.672-30.512-44.096-48.336-64h-237.408zM688.48 224c9.296 20.608 17.36 41.936 24.016 64h251.984c-7.856-22.128-17.264-43.504-28.144-64h-247.856zM721.328 320c4.88 20.8 8.224 42.256 10.672 64h255.616c-2.928-21.824-7.312-43.184-13.072-64h-253.216zM732 512c-2.448 21.744-5.792 43.2-10.688 64h253.216c5.76-20.816 10.16-42.176 13.072-64h-255.6zM712.48 608c-6.64 22.064-14.72 43.392-24.016 64h247.872c10.88-20.496 20.288-41.872 28.144-64h-252zM672.768 704c-12.080 22.448-25.648 43.872-40.8 64h237.424c17.824-19.904 33.984-41.328 48.336-64h-244.96zM605.648 800c-21.168 23.632-44.688 44.976-70.128 64h215.488c31.36-18.080 60.496-39.552 86.88-64h-232.24zM512 928c60.608 0 118.576-11.408 172.032-32h-196.512c-16.88 9.68-34.64 18.048-52.848 25.68 25.184 4.096 50.992 6.32 77.328 6.32zM32 448c0 217.728 145.776 401.952 344.832 460.48 196.16-58.608 327.168-241.664 327.168-460.48 0-218.832-131.008-401.92-327.184-460.48-199.056 58.544-344.816 242.752-344.816 460.48zM434.704-25.68c18.208 7.648 35.968 16 52.848 25.68h196.48c-53.456-20.592-111.424-32-172.032-32-26.32 0-52.128 2.224-77.296 6.32z" />
<glyph unicode="&#xe646;" d="M371.232-44.176l0.88-3.296c1.744 0.464 3.376 1.12 5.104 1.6 42.992-11.744 88.144-18.128 134.784-18.128 282.32 0 512 229.68 512 512s-229.68 512-512 512c-46.656 0-91.824-6.384-134.8-18.144-1.728 0.48-3.36 1.136-5.088 1.6l-0.88-3.28c-214.064-61.328-371.232-258.672-371.232-492.176s157.168-430.848 371.232-492.176zM32 448c0 10.768 0.48 21.408 1.184 32h669.6c0.624-10.592 1.216-21.216 1.216-32s-0.592-21.408-1.216-32h-669.6c-0.704 10.592-1.184 21.232-1.184 32zM478.304 864c30.304-18.128 58.272-39.488 83.264-64h-375.456c26.384 24.448 55.536 45.92 86.88 64h205.312zM339.984 896c12.064 4.64 24.352 8.816 36.848 12.496 12.336-3.68 24.416-7.84 36.224-12.496h-73.072zM590.96 768c16.736-19.904 31.76-41.312 45.072-64h-529.76c14.352 22.672 30.512 44.096 48.352 64h436.336zM653.232 672c10.016-20.528 18.832-41.824 26-64h-619.712c7.84 22.128 17.264 43.504 28.128 64h565.584zM478.304 32h-205.312c-31.344 18.080-60.496 39.552-86.88 64h375.456c-24.992-24.512-52.96-45.872-83.264-64zM413.024 0c-11.808-4.656-23.872-8.8-36.208-12.48-12.496 3.664-24.784 7.84-36.832 12.48h73.040zM590.96 128h-436.336c-17.84 19.904-34 41.328-48.352 64h529.76c-13.312-22.688-28.336-44.096-45.072-64zM653.232 224h-565.568c-10.864 20.496-20.288 41.872-28.128 64h619.696c-7.168-22.176-15.984-43.472-26-64zM688.176 576c5.216-20.784 9.008-42.176 11.632-64h-663.424c2.928 21.824 7.312 43.184 13.072 64h638.72zM699.808 384c-2.624-21.824-6.416-43.216-11.632-64h-638.704c-5.76 20.816-10.144 42.176-13.072 64h663.408zM512 928c264.672 0 480-215.328 480-480s-215.328-480-480-480c-26.32 0-52.128 2.224-77.312 6.32 182.512 76.608 301.312 259.040 301.312 473.68s-118.8 397.088-301.328 473.68c25.184 4.096 50.992 6.32 77.328 6.32z" />
<glyph unicode="&#xe647;" d="M652.768 940.176l-0.88 3.296c-1.744-0.464-3.376-1.12-5.104-1.6-42.992 11.744-88.144 18.128-134.784 18.128-282.32 0-512-229.68-512-512s229.68-512 512-512c46.656 0 91.824 6.384 134.8 18.144 1.728-0.48 3.36-1.136 5.088-1.6l0.88 3.28c214.064 61.328 371.232 258.672 371.232 492.176s-157.168 430.848-371.232 492.176zM589.312 921.68c-18.208-7.648-35.968-16-52.848-25.68h-196.48c53.44 20.592 111.408 32 172.016 32 26.32 0 52.128-2.224 77.312-6.32zM186.112 96h232.256c21.168-23.632 44.672-44.976 70.112-64h-215.488c-31.344 18.080-60.496 39.552-86.88 64zM154.624 128c-17.84 19.904-34 41.328-48.352 64h244.976c12.080-22.448 25.648-43.872 40.8-64h-237.424zM87.664 224c-10.864 20.496-20.288 41.872-28.128 64h251.984c6.656-22.064 14.72-43.392 24.016-64h-247.872zM32 448c0 10.768 0.48 21.408 1.184 32h256.032c-0.576-10.608-1.216-21.216-1.216-32s0.64-21.392 1.232-32h-256.048c-0.704 10.592-1.184 21.232-1.184 32zM292 384c2.448-21.744 5.792-43.2 10.672-64h-253.2c-5.76 20.816-10.144 42.176-13.072 64h255.6zM292 512h-255.616c2.928 21.824 7.312 43.184 13.072 64h253.216c-4.88-20.8-8.224-42.256-10.672-64zM311.504 608h-251.984c7.84 22.128 17.264 43.504 28.128 64h247.872c-9.296-20.608-17.36-41.936-24.016-64zM351.232 704h-244.96c14.352 22.672 30.512 44.096 48.352 64h237.392c-15.152-20.128-28.704-41.552-40.784-64zM418.352 800h-232.24c26.384 24.448 55.536 45.92 86.88 64h215.456c-25.424-19.024-48.928-40.368-70.096-64zM512-32c-60.608 0-118.576 11.408-172.016 32h196.496c16.88-9.664 34.656-18.048 52.848-25.68-25.184-4.096-50.992-6.32-77.328-6.32zM647.168-12.496c-196.16 58.608-327.168 241.68-327.168 460.496 0 218.832 131.008 401.92 327.184 460.48 199.040-58.528 344.816-242.752 344.816-460.48s-145.776-401.968-344.832-460.496z" />
<glyph unicode="&#xe648;" d="M176 304v32c-82.096 0-144 61.904-144 144 0 86.72 65.952 160 144 160h45.28l2.448 13.040c26.464 140.784 161.152 242.96 320.272 242.96 179.44 0 320-133.536 320-304v-16h16c66 0 112-67.456 112-128 0-63.856-48.144-112-112-112v-32c82.096 0 144 61.904 144 144 0 72.48-50.912 149.776-128.336 159.072-7.984 181.152-159.568 320.928-351.664 320.928-169.584 0-314.080-106.88-348.976-256h-19.024c-95.392 0-176-87.92-176-192 0-100.336 75.664-176 176-176zM512-32c-35.296 0-64 28.704-64 64h-32c0-52.944 43.056-96 96-96s96 43.056 96 96-43.056 96-96 96h-480v-32h480c35.296 0 64-28.704 64-64s-28.704-64-64-64zM816 288c0 52.944-43.056 96-96 96s-96-43.056-96-96h32c0 35.296 28.704 64 64 64s64-28.704 64-64-28.704-64-64-64h-656v-32h656c52.944 0 96 43.056 96 96z" />
<glyph unicode="&#xe649;" d="M512 960c-282.32 0-512-229.68-512-512s229.68-512 512-512 512 229.68 512 512-229.68 512-512 512zM512-32c-264.672 0-480 215.328-480 480s215.328 480 480 480 480-215.328 480-480-215.328-480-480-480zM432 448c0-44.112 35.888-80 80-80s80 35.888 80 80-35.888 80-80 80-80-35.888-80-80zM560 448c0-26.464-21.536-48-48-48s-48 21.536-48 48 21.536 48 48 48 48-21.536 48-48zM304 448c0-114.688 93.312-208 208-208 109.552 0 396.592 186.656 408.752 194.608l20.512 13.392-20.512 13.392c-12.16 7.952-299.2 194.608-408.752 194.608-114.688 0-208-93.312-208-208zM512 272c-97.040 0-176 78.96-176 176s78.96 176 176 176c76.736 0 276.784-116.688 370.4-176-93.616-59.312-293.664-176-370.4-176z" />
<glyph unicode="&#xe64a;" d="M911.616 510.832c-8.592 160.768-155.84 289.168-335.616 289.168-65.552 0-127.008-18.496-178.496-50.512-42.352 52.016-105.44 82.512-173.504 82.512-123.52 0-224-100.48-224-224 0-42.912 12.176-84.608 35.216-120.608 13.6-21.232 31.008-40.144 50.912-55.744-3.888-15.184-6.128-31.12-6.128-47.648 0-92.704 67.296-160 160-160v32c-75.36 0-128 52.64-128 128 0 79.392 57.424 144 128 144h45.264l2.448 13.040c24.736 131.52 145.968 226.96 288.288 226.96 167.632 0 304-122.016 304-272v-16h16c56.576 0 96-67.456 96-128 0-58.32-37.68-96-96-96v-32c75.36 0 128 52.64 128 128 0 71.888-44.528 148.512-112.384 158.832zM259.024 560h-19.024c-62.080 0-115.872-39.168-142.4-96.144-13.584 11.952-25.712 25.616-35.424 40.784-19.744 30.832-30.176 66.576-30.176 103.36 0 105.872 86.128 192 192 192 57.456 0 110.864-25.296 147.152-68.656-55.312-42.448-95.824-102-112.128-171.344zM32 96h480c35.296 0 64-28.704 64-64s-28.704-64-64-64-64 28.704-64 64h-32c0-52.944 43.056-96 96-96s96 43.056 96 96-43.056 96-96 96h-480v-32zM720 192h-656v-32h656c52.944 0 96 43.056 96 96s-43.056 96-96 96-96-43.056-96-96h32c0 35.296 28.704 64 64 64s64-28.704 64-64-28.704-64-64-64z" />
<glyph unicode="&#xe64b;" d="M911.616 510.832c-8.592 160.768-155.84 289.168-335.616 289.168-65.552 0-127.008-18.496-178.496-50.512-42.352 52.016-105.44 82.512-173.504 82.512-13.488 0-27.488-1.344-41.584-4l-23.264-4.384 12.736-19.952c13.152-20.624 20.112-44.368 20.112-68.656 0-70.576-57.424-128-128-128-14.24 0-28.496 2.464-42.384 7.344l-22.272 7.824 0.992-23.584c1.664-39.664 13.712-78.128 34.896-111.2 13.6-21.232 31.008-40.144 50.912-55.744-3.904-15.184-6.144-31.12-6.144-47.648 0-92.704 67.296-160 160-160v32c-75.36 0-128 52.64-128 128 0 79.392 57.424 144 128 144h45.264l2.448 13.040c24.736 131.52 145.968 226.96 288.288 226.96 167.632 0 304-122.016 304-272v-16h16c56.576 0 96-67.456 96-128 0-58.32-37.68-96-96-96v-32c75.36 0 128 52.64 128 128 0 71.888-44.528 148.512-112.384 158.832zM259.024 560h-19.024c-62.080 0-115.872-39.168-142.4-96.144-13.6 11.952-25.712 25.616-35.44 40.784-14.16 22.128-23.568 47.072-27.68 73.168 9.792-1.872 19.648-2.8 29.52-2.8 88.224 0 160 71.776 160 160 0 22.304-4.672 44.208-13.648 64.48 4.624 0.336 9.168 0.512 13.648 0.512 57.456 0 110.864-25.296 147.152-68.656-55.312-42.448-95.824-102-112.128-171.344zM32 96h480c35.296 0 64-28.704 64-64s-28.704-64-64-64-64 28.704-64 64h-32c0-52.944 43.056-96 96-96s96 43.056 96 96-43.056 96-96 96h-480v-32zM720 192h-656v-32h656c52.944 0 96 43.056 96 96s-43.056 96-96 96-96-43.056-96-96h32c0 35.296 28.704 64 64 64s64-28.704 64-64-28.704-64-64-64z" />
<glyph unicode="&#xe64c;" d="M512 960c-282.32 0-512-229.68-512-512s229.68-512 512-512 512 229.68 512 512-229.68 512-512 512zM512-32c-264.672 0-480 215.328-480 480s215.328 480 480 480 480-215.328 480-480-215.328-480-480-480zM432 448c0-44.112 35.888-80 80-80s80 35.888 80 80-35.888 80-80 80-80-35.888-80-80zM560 448c0-26.464-21.536-48-48-48s-48 21.536-48 48 21.536 48 48 48 48-21.536 48-48zM512 877.264l-13.392-20.512c-7.952-12.176-194.608-299.2-194.608-408.752 0-114.688 93.312-208 208-208s208 93.312 208 208c0 109.552-186.656 396.576-194.608 408.752l-13.392 20.512zM512 272c-97.040 0-176 78.96-176 176 0 76.736 116.688 276.784 176 370.4 59.312-93.616 176-293.664 176-370.4 0-97.040-78.96-176-176-176z" />
<glyph unicode="&#xe64d;" d="M512 960.016c-136.752 0-265.328-53.264-362.032-149.968-199.632-199.632-199.632-524.448 0-724.080 96.704-96.704 225.28-149.968 362.032-149.968s265.328 53.264 362.032 149.968c199.632 199.632 199.632 524.448 0 724.080-96.704 96.704-225.28 149.968-362.032 149.968zM851.408 108.592c-90.672-90.656-211.2-140.592-339.408-140.592s-248.736 49.936-339.408 140.592c-187.152 187.152-187.152 491.664 0 678.832 90.672 90.656 211.2 140.592 339.408 140.592s248.736-49.936 339.408-140.592c187.152-187.152 187.152-491.68 0-678.832zM512 368.016c21.36 0 41.456 8.32 56.56 23.424 31.2 31.184 31.2 81.952 0 113.136-15.104 15.104-35.2 23.424-56.56 23.424s-41.456-8.32-56.56-23.424c-31.2-31.184-31.2-81.952 0-113.136 15.104-15.104 35.2-23.424 56.56-23.424zM478.064 481.952c9.056 9.056 21.12 14.048 33.936 14.048s24.88-4.992 33.936-14.048c18.72-18.72 18.72-49.168 0-67.888-18.128-18.128-49.744-18.128-67.872 0-18.72 18.72-18.72 49.168 0 67.888zM364.928 595.088c-81.088-81.104-81.088-213.056 0-294.16 39.28-39.28 91.504-60.912 147.072-60.928 0 0 0 0 0 0 55.552 0 107.792 21.648 147.072 60.944 77.616 77.616 138.112 402.368 140.656 416.176l4.208 22.832-22.832-4.208c-13.776-2.544-338.576-63.040-416.176-140.656zM636.448 323.568c-33.232-33.248-77.44-51.568-124.448-51.568s-91.216 18.32-124.448 51.568c-68.624 68.608-68.624 180.288 0 248.912 54.208 54.208 271.76 106.528 376.288 127.36-20.832-104.528-73.168-322.064-127.392-376.272z" />
<glyph unicode="&#xe64e;" d="M511.984 960c-136.752 0-265.328-53.248-362.032-149.968-96.704-96.704-149.968-225.264-149.968-362.016 0-136.768 53.264-265.328 149.968-362.048 96.704-96.704 225.28-149.952 362.032-149.952 136.768 0 265.344 53.248 362.048 149.952 96.704 96.72 149.968 225.28 149.968 362.048 0 136.752-53.264 265.312-149.968 362.016-96.704 96.72-225.28 149.968-362.048 149.968zM851.408 108.592c-90.656-90.656-211.2-140.576-339.424-140.576-128.208 0-248.752 49.92-339.408 140.576-90.656 90.672-140.592 211.2-140.592 339.424 0 128.208 49.936 248.736 140.592 339.392 90.656 90.672 211.2 140.592 339.408 140.592 128.224 0 248.768-49.92 339.424-140.592 90.656-90.656 140.592-211.184 140.592-339.392 0-128.224-49.936-248.752-140.592-339.424zM512 528c-21.376 0-41.472-8.336-56.576-23.44-15.104-15.088-23.424-35.168-23.424-56.544s8.32-41.472 23.424-56.576 35.2-23.44 56.576-23.44c21.36 0 41.456 8.336 56.56 23.44s23.424 35.2 23.424 56.576-8.32 41.456-23.424 56.544c-15.104 15.104-35.2 23.44-56.56 23.44zM545.936 414.064c-18.128-18.144-49.728-18.112-67.888 0-9.056 9.056-14.048 21.12-14.048 33.952 0 12.816 4.992 24.864 14.048 33.92 9.072 9.072 21.12 14.064 33.952 14.064 12.816 0 24.88-4.992 33.936-14.064s14.048-21.104 14.048-33.92c0-12.832-4.976-24.896-14.048-33.952zM242.896 735.728l-22.832 4.208 4.208-22.832c2.528-13.792 63.024-338.576 140.64-416.176 39.28-39.28 91.52-60.928 147.072-60.928s107.792 21.648 147.072 60.928c39.296 39.296 60.928 91.52 60.944 147.072 0 55.568-21.648 107.792-60.944 147.088-77.6 77.6-402.368 138.112-416.16 140.64zM636.432 323.568c-33.248-33.248-77.44-51.552-124.448-51.552s-91.2 18.32-124.448 51.552c-54.208 54.192-106.528 271.728-127.36 376.272 104.512-20.848 322.064-73.168 376.272-127.36 33.232-33.264 51.552-77.472 51.552-124.48s-18.32-91.2-51.568-124.432z" />
<glyph unicode="&#xe64f;" d="M512-64c282.32 0 512 229.68 512 512s-229.68 512-512 512-512-229.68-512-512 229.664-512 512-512zM512 928c264.672 0 480-215.328 480-480s-215.328-480-480-480-480 215.328-480 480 215.328 480 480 480zM592 448c0 44.112-35.888 80-80 80s-80-35.888-80-80 35.888-80 80-80 80 35.888 80 80zM464 448c0 26.464 21.536 48 48 48s48-21.536 48-48-21.536-48-48-48-48 21.536-48 48zM512 18.736l13.392 20.512c7.936 12.176 194.608 299.2 194.608 408.752 0 114.688-93.312 208-208 208s-208-93.312-208-208c0-109.552 186.656-396.576 194.608-408.752l13.392-20.512zM512 624c97.040 0 176-78.96 176-176 0-76.736-116.688-276.784-176-370.4-59.312 93.616-176 293.664-176 370.4 0 97.040 78.944 176 176 176z" />
<glyph unicode="&#xe650;" d="M511.984 960.016c-136.752 0-265.328-53.264-362.032-149.968-199.632-199.632-199.632-524.432 0-724.064 96.704-96.704 225.28-149.968 362.032-149.968 136.768 0 265.344 53.264 362.048 149.968 199.632 199.632 199.632 524.432 0 724.064-96.704 96.704-225.28 149.968-362.048 149.968zM851.408 108.608c-90.656-90.656-211.2-140.592-339.424-140.592-128.208 0-248.752 49.936-339.408 140.592-187.136 187.152-187.136 491.664 0 678.816 90.656 90.656 211.2 140.592 339.408 140.592 128.224 0 248.768-49.936 339.424-140.592 187.136-187.152 187.136-491.664 0-678.816zM512 528.016c-21.376 0-41.472-8.336-56.576-23.44-31.184-31.184-31.184-81.936 0-113.12 15.104-15.104 35.2-23.44 56.576-23.44 21.36 0 41.456 8.336 56.56 23.44 31.184 31.184 31.184 81.936 0 113.12-15.104 15.104-35.2 23.44-56.56 23.44zM545.936 414.080c-18.144-18.144-49.744-18.112-67.888 0-18.72 18.72-18.72 49.152 0 67.872 9.072 9.056 21.12 14.064 33.952 14.064 12.816 0 24.88-4.992 33.936-14.064 18.72-18.72 18.72-49.152 0-67.872zM659.072 595.088c-39.296 39.28-91.536 60.928-147.072 60.928-55.568 0-107.792-21.648-147.072-60.928-39.296-39.28-60.928-91.52-60.944-147.072 0-55.568 21.648-107.792 60.944-147.072 77.616-77.616 402.368-138.128 416.176-140.656l22.832-4.208-4.208 22.832c-2.544 13.792-63.040 338.576-140.656 416.176zM387.552 323.568c-33.248 33.248-51.568 77.44-51.568 124.448s18.32 91.216 51.568 124.448c33.232 33.232 77.44 51.552 124.448 51.552s91.2-18.32 124.448-51.552c54.208-54.208 106.528-271.744 127.36-376.288-104.512 20.832-322.048 73.168-376.256 127.392z" />
<glyph unicode="&#xe651;" d="M911.616 510.832c-8.592 160.768-155.84 289.168-335.616 289.168-31.344 0-61.664-4.4-90.512-12.304-38.832 28.912-84.816 44.304-133.488 44.304-123.52 0-224-100.48-224-224 0-34.624 7.792-57.84 19.952-80.288-41.024-31.904-67.952-84.368-67.952-143.712 0-92.704 67.296-160 160-160v32c-75.36 0-128 52.64-128 128 0 79.392 57.424 144 128 144h45.264l2.448 13.040c24.736 131.52 145.968 226.96 288.288 226.96 167.632 0 304-122.016 304-272v-16h16c56.576 0 96-67.456 96-128 0-58.32-37.68-96-96-96v-32c75.36 0 128 52.64 128 128 0 71.888-44.528 148.512-112.384 158.832zM259.024 560h-19.024c-23.072 0-44.976-5.504-64.8-15.216-10.528 20.016-15.2 37.328-15.2 63.216 0 105.872 86.128 192 192 192 33.904 0 66.288-8.752 95.088-25.28-93.44-38.144-164.976-116.576-188.064-214.72zM0 624h96v-32h-96v32zM336 960h32v-96h-32v96zM75.31 907.319l95.996-95.996-22.627-22.627-95.996 95.996 22.627 22.627zM512-32c-35.296 0-64 28.704-64 64h-32c0-52.944 43.056-96 96-96s96 43.056 96 96-43.056 96-96 96h-480v-32h480c35.296 0 64-28.704 64-64s-28.704-64-64-64zM720 192h-656v-32h656c52.944 0 96 43.056 96 96s-43.056 96-96 96-96-43.056-96-96h32c0 35.296 28.704 64 64 64s64-28.704 64-64-28.704-64-64-64z" />
<glyph unicode="&#xe652;" d="M874.032 85.968c199.632 199.632 199.632 524.448 0 724.080-96.704 96.704-225.28 149.968-362.032 149.968s-265.328-53.264-362.032-149.968c-199.632-199.632-199.632-524.448 0-724.080 96.704-96.704 225.28-149.968 362.032-149.968s265.328 53.264 362.032 149.968zM172.592 787.424c90.656 90.656 211.2 140.592 339.408 140.592s248.752-49.936 339.408-140.592c187.152-187.152 187.152-491.664 0-678.832-90.656-90.656-211.2-140.592-339.408-140.592s-248.752 49.936-339.408 140.592c-187.152 187.152-187.152 491.68 0 678.832zM512 528c-21.376 0-41.456-8.32-56.56-23.424-31.184-31.184-31.184-81.952 0-113.136 15.104-15.104 35.184-23.424 56.56-23.424s41.456 8.32 56.56 23.424c31.184 31.184 31.184 81.952 0 113.136-15.104 15.104-35.184 23.424-56.56 23.424zM545.936 414.064c-18.128-18.128-49.744-18.128-67.872 0-18.72 18.72-18.72 49.168 0 67.888 9.056 9.056 21.104 14.048 33.936 14.048s24.88-4.992 33.936-14.048c18.72-18.72 18.72-49.168 0-67.888zM659.072 595.072c-39.28 39.296-91.52 60.944-147.072 60.944s-107.792-21.648-147.072-60.944c-77.616-77.616-138.128-402.368-140.656-416.176l-4.208-22.832 22.832 4.208c13.792 2.528 338.576 63.024 416.192 140.64 81.088 81.12 81.088 213.072-0.016 294.16zM260.176 196.192c20.832 104.512 73.152 322.048 127.376 376.272 33.248 33.248 77.44 51.568 124.448 51.568s91.2-18.32 124.448-51.568c68.608-68.608 68.608-180.288 0-248.912-54.192-54.208-271.744-106.544-376.272-127.36z" />
<glyph unicode="&#xe653;" d="M511.984-63.984c282.32 0 512 229.68 512 512s-229.68 512-512 512-512-229.68-512-512 229.68-512 512-512zM511.984 928.016c264.672 0 480-215.328 480-480s-215.328-480-480-480-480 215.328-480 480 215.328 480 480 480zM591.984 448.016c0 44.112-35.888 80-80 80s-80-35.888-80-80 35.888-80 80-80 80 35.888 80 80zM463.984 448.016c0 26.464 21.536 48 48 48s48-21.536 48-48-21.536-48-48-48-48 21.536-48 48zM103.232 434.624c12.16-7.952 299.2-194.608 408.752-194.608 114.688 0 208 93.312 208 208s-93.312 208-208 208c-109.552 0-396.592-186.656-408.752-194.608l-20.512-13.392 20.512-13.392zM511.984 624.016c97.040 0 176-78.96 176-176s-78.96-176-176-176c-76.736 0-276.784 116.688-370.4 176 93.616 59.312 293.664 176 370.4 176z" />
<glyph unicode="&#xe654;" d="M0 416h816c52.944 0 96-43.056 96-96s-43.056-96-96-96-96 43.056-96 96h-32c0-70.576 57.424-128 128-128s128 57.424 128 128-57.424 128-128 128h-816v-32zM0 528h896c70.576 0 128 57.424 128 128s-57.424 128-128 128-128-57.424-128-128h32c0 52.944 43.056 96 96 96s96-43.056 96-96-43.056-96-96-96h-896v-32zM0 304h512c35.296 0 64-28.704 64-64s-28.704-64-64-64-64 28.704-64 64h-32c0-52.944 43.056-96 96-96s96 43.056 96 96-43.056 96-96 96h-512v-32z" />
<glyph unicode="&#xe655;" d="M192 105.376l134.624 134.624h25.376v32h-16v16h-32v-25.376l-134.624-134.624h-169.376v-192h192v169.376zM160-32h-128v128h128v-128zM832 790.624l-134.624-134.624h-25.376v-32h16v-16h32v25.376l134.624 134.624h169.376v192h-192v-169.376zM864 928h128v-128h-128v128zM384 656h64v-32h-64v32zM576 656h64v-32h-64v32zM480 656h64v-32h-64v32zM336 624h16v32h-48v-48h32zM304 384h32v-64h-32v64zM304 576h32v-64h-32v64zM304 480h32v-64h-32v64zM384 272h64v-32h-64v32zM480 272h64v-32h-64v32zM576 272h64v-32h-64v32zM688 272h-16v-32h48v48h-32zM688 480h32v-64h-32v64zM688 384h32v-64h-32v64zM688 576h32v-64h-32v64zM400 432h96v-96h32v96h96v32h-96v96h-32v-96h-96z" />
<glyph unicode="&#xe656;" d="M512 112c282.32 0 512 150.72 512 336s-229.68 336-512 336-512-150.72-512-336 229.68-336 512-336zM32.672 432h463.328v-287.744c-248.88 5.2-450.416 130.88-463.328 287.744zM528 144.256v287.744h463.328c-12.912-156.864-214.448-282.544-463.328-287.744zM991.328 464h-463.328v287.744c248.88-5.2 450.416-130.88 463.328-287.744zM496 751.744v-287.744h-463.328c12.912 156.864 214.448 282.544 463.328 287.744z" />
<glyph unicode="&#xe657;" d="M766.496 0l254.288 448-254.288 448h-508.992l-254.288-448 254.288-448h508.992zM299.184 32l212.816 383.056 212.816-383.056h-425.632zM984 448l-229.28-403.952-224.416 403.952 224.416 403.952 229.28-403.952zM512 480.944l-212.816 383.056h425.632l-212.816-383.056zM269.28 851.952l224.416-403.952-224.416-403.952-229.28 403.952 229.28 403.952z" />
<glyph unicode="&#xe658;" d="M0 112h1024v672h-1024v-672zM541.52 448l450.48 290.64v-581.28l-450.48 290.64zM953.68 144h-883.36l441.68 284.96 441.68-284.96zM512 467.040l-441.68 284.96h883.376l-441.696-284.96zM482.48 448l-450.48-290.64v581.28l450.48-290.64z" />
<glyph unicode="&#xe659;" d="M208 112h608c114.688 0 208 93.312 208 208v256c0 114.688-93.312 208-208 208h-608c-114.688 0-208-93.312-208-208v-256c0-114.688 93.312-208 208-208zM208 144c-36.944 0-71.2 11.488-99.552 31.008l403.552 254.080 403.552-254.080c-28.352-19.52-62.608-31.008-99.552-31.008h-608zM992 576v-256c0-48.032-19.392-91.6-50.704-123.392l-399.264 251.392 399.264 251.392c31.312-31.792 50.704-75.36 50.704-123.392zM816 752c36.944 0 71.2-11.488 99.552-31.008l-403.552-254.080-403.552 254.080c28.352 19.52 62.608 31.008 99.552 31.008h608zM32 576c0 48.032 19.392 91.6 50.704 123.392l399.264-251.392-399.264-251.392c-31.312 31.792-50.704 75.36-50.704 123.392v256z" />
<glyph unicode="&#xe65a;" d="M864 777.376l155.312 155.312-22.624 22.624-155.312-155.312h-649.376v160h-32v-160h-160v-32h160v-672h672v-160h32v160h160v32h-160v649.376zM809.376 768l-617.376-617.376v617.376h617.376zM214.624 128l617.376 617.376v-617.376h-617.376z" />
<glyph unicode="&#xe65b;" d="M864 960h-6.576l-4.672-4.624c0 0-41.136-40.64-64.064-64.064l-180.688-180.688-64 64-86.624-86.624 72.096-72.112-481.472-513.552v-31.696l-54.624-54.64 86.624-86.624 54.624 54.624h31.696l513.568 481.472 72.112-72.096 86.624 86.624-64 64 249.376 249.376v6.624c0 79.248-80.752 160-160 160zM153.664 16h-32.288l-41.376-41.376-41.376 41.376 41.376 41.376v32.304l472.112 503.6 105.152-105.152-503.6-472.128zM752 438.624l-249.376 249.376 41.376 41.376 249.376-249.376-41.376-41.376zM752 566.624l-121.376 121.376 180.8 180.816c18.080 18.448 47.36 47.52 58.912 58.96 57.088-4.24 117.168-64.304 121.424-121.376l-239.76-239.776z" />
<glyph unicode="&#xe65c;" d="M146.432 320h267.168l67.392-181.376 30 11.152-211.872 570.224h-38.256l-211.872-570.416 30-11.152 67.44 181.568zM280 679.6l121.712-327.6h-243.376l121.664 327.6zM610.432 320h267.168l67.392-181.376 30 11.152-211.872 570.224h-38.256l-211.872-570.416 30-11.152 67.44 181.568zM744 679.6l121.712-327.6h-243.376l121.664 327.6zM1024 960h-1024v-1024h1024v1024zM992-32h-960v960h960v-960z" />
<glyph unicode="&#xe65d;" d="M484.72 480l76.208-213.376 30.144 10.752-243.792 682.624h-38.544l-243.808-682.624 30.144-10.752 76.208 213.376h313.44zM328 918.832l145.296-406.832h-290.592l145.296 406.832zM788.624 848l-131.728-378.752 30.224-10.496 35.216 101.248h171.344l35.216-101.248 30.224 10.496-131.744 378.752h-38.752zM733.456 592l74.544 214.304 74.544-214.304h-149.088zM32 224h576v-32h-576v32zM640 416h352v-32h-352v32zM832-64v345.376l84.688-84.688 22.624 24.976-112 114.336h-22.624l-112-114.336 22.624-23.808 84.688 83.52v-345.376z" />
<glyph unicode="&#xe65e;" d="M676.736 464l76.208-213.376 30.128 10.752-243.792 682.624h-38.56l-243.776-682.624 30.128-10.752 76.192 213.376h313.472zM520 902.832l145.296-406.832h-290.592l145.296 406.832zM130.336 187.312l-114.336-112v-22.624l114.336-112 23.808 22.624-83.52 84.688h882.752l-84.688-84.688 24.976-22.624 114.336 112v22.624l-114.336 112-23.808-22.624 83.52-84.688h-882.752l83.52 84.688z" />
<glyph unicode="&#xe65f;" d="M196.624 784l-131.728-378.752 30.224-10.496 35.216 101.248h171.344l35.216-101.248 30.224 10.496-131.744 378.752h-38.752zM141.456 528l74.544 214.304 74.544-214.304h-149.088zM656.896 405.248l30.224-10.496 35.216 101.248h171.344l35.216-101.248 30.224 10.496-131.744 378.752h-38.752l-131.728-378.752zM882.544 528h-149.072l74.528 214.304 74.544-214.304zM496 864h32v-32h-32v32zM496 416h32v-64h-32v64zM496 608h32v-64h-32v64zM496 704h32v-64h-32v64zM496 512h32v-64h-32v64zM496 800h32v-64h-32v64zM496 320h32v-32h-32v32zM893.664-59.312l114.336 112v22.624l-114.336 112-23.808-22.624 83.52-84.688h-882.752l84.688 84.688-24.976 22.624-114.336-112v-22.624l114.336-112 23.808 22.624-83.52 84.688h882.752l-83.52-84.688z" />
<glyph unicode="&#xe660;" d="M692.624 960l-131.728-378.752 30.224-10.496 35.216 101.248h171.344l35.216-101.248 30.224 10.496-131.744 378.752h-38.752zM637.456 704l74.544 214.304 74.544-214.304h-149.088zM432 528h544v-32h-544v32zM797.664 144l35.216-101.248 30.224 10.496-131.728 378.752h-38.752l-131.728-378.752 30.224-10.496 35.216 101.248h171.328zM712 390.304l74.544-214.304h-149.088l74.544 214.304zM432 0h544v-32h-544v32zM292.688 404.688l22.624 24.976-112 114.336h-22.624l-112-114.336 22.624-23.808 84.688 83.52v-482.752l-84.688 84.688-22.624-24.976 112-114.336h22.624l112 114.336-22.624 23.808-84.688-83.52v482.752z" />
<glyph unicode="&#xe661;" d="M852.736 480l76.208-213.376 30.128 10.752-243.792 682.624h-38.56l-243.776-682.624 30.128-10.752 76.192 213.376h313.472zM696 918.832l145.296-406.832h-290.592l145.296 406.832zM301.664 368l35.216-101.248 30.224 10.496-131.728 378.752h-38.752l-131.728-378.752 30.224-10.496 35.216 101.248h171.328zM216 614.304l74.544-214.304h-149.088l74.544 214.304zM909.664-59.312l114.336 112v22.624l-114.336 112-23.808-22.624 83.52-84.688h-914.752l84.688 84.688-24.976 22.624-114.336-112v-22.624l114.336-112 23.808 22.624-83.52 84.688h914.752l-83.52-84.688z" />
<glyph unicode="&#xe662;" d="M324.72 832l-243.792-682.624 30.144-10.752 76.208 213.376h313.456l76.208-213.376 30.144 10.752-243.808 682.624h-38.56zM198.704 384l145.296 406.832 145.296-406.832h-290.592zM772.624 528l-131.728-378.752 30.224-10.496 35.216 101.248h171.344l35.216-101.248 30.224 10.496-131.744 378.752h-38.752zM717.456 272l74.544 214.304 74.544-214.304h-149.088zM0-64h1024v1024h-1024v-1024zM32 928h960v-960h-960v960z" />
<glyph unicode="&#xe663;" d="M340.72 832l-243.792-682.624 30.144-10.752 76.208 213.376h313.456l76.208-213.376 30.144 10.752-243.808 682.624h-38.56zM214.704 384l145.296 406.832 145.296-406.832h-290.592zM896 208v160c0 37.104-28.24 96-104 96-71.184 0-99.632-36.832-100.8-38.4l25.456-19.376c0.848 1.040 21.2 25.776 75.344 25.776 52.832 0 72-38.288 72-64v-32h-64c-44.272 0-128-20.064-128-96 0-61.008 34.992-96 96-96 43.76 0 73.792 14.352 95.776 40.336 6.24-19.872 32.224-40.336 48.224-40.336v32c-16 0-15.952 26.72-16 32zM768 176c-27.472 0-64 6.64-64 64 0 62.976 92.096 63.984 96 64h64v-32c0-79.344-52.208-96-96-96zM0-64h1024v1024h-1024v-1024zM32 928h960v-960h-960v960z" />
<glyph unicode="&#xe664;" d="M896 368c0 37.104-28.24 96-104 96-71.184 0-99.632-36.832-100.8-38.4l25.456-19.376c0.848 1.040 21.2 25.776 75.344 25.776 52.832 0 72-38.288 72-64v-32h-64c-37.216 0-102.176-14.336-121.952-64h-98.784l-199.984 560h-38.56l-199.984-560h-44.736v-32h33.296l-32.352-90.624 30.128-10.752 36.192 101.376h393.472l36.208-101.376 30.128 10.752-32.368 90.624h81.296c0-61.008 34.992-96 96-96 43.76 0 73.792 14.352 95.776 40.336 6.24-19.872 32.224-40.336 48.224-40.336v32c-16 0-15.936 26.72-16 32v32h32v32h-32v96zM360 790.832l133.872-374.832h-267.744l133.872 374.832zM174.704 272l40 112h290.592l40-112h-370.592zM768 176c-27.472 0-64 6.64-64 64h156.432c-12.32-51.888-55.344-64-92.432-64zM714.736 272c24.336 31.216 82.208 31.984 85.264 32h64v-32h-149.264zM0-64h1024v1024h-1024v-1024zM32 928h960v-960h-960v960z" />
<glyph unicode="&#xe665;" d="M159.104 394.752l35.232 101.248h171.344l35.216-101.248 30.224 10.496-131.744 378.752h-38.752l-131.728-378.752 30.208-10.496zM280 742.304l74.544-214.304h-149.072l74.528 214.304zM724.624 784l-131.728-378.752 30.224-10.496 35.216 101.248h171.344l35.216-101.248 30.224 10.496-131.744 378.752h-38.752zM669.456 528l74.544 214.304 74.544-214.304h-149.088zM496 864h32v-32h-32v32zM496 608h32v-64h-32v64zM496 416h32v-64h-32v64zM496 512h32v-64h-32v64zM496 800h32v-64h-32v64zM496 704h32v-64h-32v64zM496 320h32v-32h-32v32zM48 864h32v-32h-32v32zM48 512h32v-64h-32v64zM48 800h32v-64h-32v64zM48 416h32v-64h-32v64zM48 608h32v-64h-32v64zM48 704h32v-64h-32v64zM48 320h32v-32h-32v32zM944 864h32v-32h-32v32zM944 608h32v-64h-32v64zM944 704h32v-64h-32v64zM944 512h32v-64h-32v64zM944 800h32v-64h-32v64zM944 416h32v-64h-32v64zM944 320h32v-32h-32v32zM893.664-59.312l114.336 112v22.624l-114.336 112-23.808-22.624 83.52-84.688h-882.752l84.688 84.688-24.976 22.624-114.336-112v-22.624l114.336-112 23.808 22.624-83.52 84.688h882.752l-83.52-84.688z" />
<glyph unicode="&#xe666;" d="M214.704 384h290.592l87.648-245.376 30.128 10.752-243.792 682.624h-38.56l-243.776-682.624 30.128-10.752 87.632 245.376zM360 790.832l133.872-374.832h-267.744l133.872 374.832zM800 336c-44.272 0-128-20.064-128-96 0-61.008 34.992-96 96-96 43.76 0 73.792 14.352 95.776 40.336 6.24-19.872 32.224-40.336 48.224-40.336v32c-16 0-15.936 26.72-16 32v160c0 37.104-28.24 96-104 96-71.184 0-99.632-36.832-100.8-38.4l25.456-19.376c0.848 1.040 21.2 25.776 75.344 25.776 52.832 0 72-38.288 72-64v-32h-64zM768 176c-27.472 0-64 6.64-64 64 0 62.976 92.112 63.984 96 64h64v-32c0-79.344-52.208-96-96-96zM1024 960h-1024v-1024h1024v1024zM992-32h-960v960h960v-960zM96 96h832v-32h-832v32z" />
<glyph unicode="&#xe667;" d="M479.056 106.624l76.208 213.376h313.472l76.208-213.376 30.128 10.752-243.792 682.624h-38.56l-243.776-682.624 30.112-10.752zM712 758.832l145.296-406.832h-290.592l145.296 406.832zM292.688 804.688l22.624 24.976-112 114.336h-22.624l-112-114.336 22.624-23.808 84.688 83.52v-882.752l-84.688 84.688-22.624-24.976 112-114.336h22.624l112 114.336-22.624 23.808-84.688-83.52v882.752z" />
<glyph unicode="&#xe668;" d="M80 416v-288h416v-192h32v192h416v288h-416v64h320v288h-320v192h-32v-192h-320v-288h320v-64h-416zM208 736h608v-224h-608v224zM912 160h-800v224h800v-224z" />
<glyph unicode="&#xe669;" d="M992 960h32v-1024h-32v1024zM928 416h-864v-288h864v288zM896 160h-800v224h800v-224zM928 768h-672v-288h672v288zM896 512h-608v224h608v-224z" />
<glyph unicode="&#xe66a;" d="M320 880h-128v-864h128v-80h32v80h128v864h-128v80h-32v-80zM448 48h-224v800h224v-800zM544 112h128v-176h32v176h128v672h-128v176h-32v-176h-128v-672zM576 752h224v-608h-224v608z" />
<glyph unicode="&#xe66b;" d="M544 960v-1024h32v176h256v672h-256v176h-32zM800 752v-608h-224v608h224zM192 960v-1024h32v80h256v864h-256v80h-32zM448 848v-800h-224v800h224z" />
<glyph unicode="&#xe66c;" d="M480-64v1024h-32v-80h-256v-864h256v-80h32zM224 48v800h224v-800h-224zM832-64v1024h-32v-176h-256v-672h256v-176h32zM576 144v608h224v-608h-224z" />
<glyph unicode="&#xe66d;" d="M176.912 125.328l30.192-10.656 78.096 221.328h308.656l79.040-225.296 30.192 10.592-243.744 694.704h-38.672l-243.76-690.672zM582.624 368h-286.128l143.488 406.528 142.64-406.528zM816 960h32v-1024h-32v1024z" />
<glyph unicode="&#xe66e;" d="M480 816h544v-32h-544v32zM352 656h496v-32h-496v32zM352 496h672v-32h-672v32zM352 336h544v-32h-544v32zM352 176h672v-32h-672v32zM352 16h576v-32h-576v32zM244.688 699.312l24.976-22.624 114.336 112v22.624l-114.336 112-23.808-22.624 83.52-84.688h-329.376v-32h329.376z" />
</font>
</defs>
</svg>
